Торрент файл
скачать торрент магнет ссылка Добавлен: 22 янв 2012, 13:13
Размер: 1.46 ГБ
Сидеров: 29
Личеров: 6
Автор

СообщениеДобавлено: 22 янв 2012, 13:13 

Не в сети
Супермодератор
Аватара пользователя
Дата регистрации:
11 апр 2010, 18:10
Спасибо: 5801 / 7
Сообщения: 56779
Проводник / Ofelas

Перевод: Профессиональный (двухголосый) Рен-ТВ, cубтитры: русские

Формат: DVDRip, AVI, XviD, MP3

Страна: Норвегия

Режиссер: Нильс Гауп

Жанр: боевик, драма, приключения

Продолжительность: 01:22:48

Год выпуска: 1987

В ролях: Миккель Гауп , Нильс Утси , Нильс-Аслак Валькеапяя , Хельги Скуласон , Свейн Шарфенберг, Кнут Валле , Джон Сигурд Кристенсен , Сара Марит Гауп , Анне-Мария Блинд , Ингвальд Гутторм , Ингер Утси

Описание: Экранизация древней лапландской легенды. Году этак в 1000-м от Рождества Христова подросток Айгин стал свидетелем того, как воины враждебного племени убили всю его семью, но сам, хоть и был подстрелен из лука, сумел сбежать. В соседнем племени Айгин рассказал о происшедшем, те решили спрятаться в укромном месте, парень же дождался злодеев, вызвался быть у них проводником через горы и повел ненавистных врагов, замыслив погубить их всех…

[/field]

Видео: 720x320 (2.25:1), 25 fps, XviD build 47 ~2193 kbps avg, 0.38 bit/pixel

Aудио #1: Русский: 48 kHz, MPEG Layer 3, 2 ch, ~128.00 kbps avg Профессиональный (двухголосый)
Аудио #2:Саамский: 48 kHz, AC3 Dolby Digital, 2/0 (L,R) ch, ~192.00 kbps avg [Оригинал]

Оскар, 1988 год

Номинации (1):
Лучший фильм на иностранном языке — «Норвегия»

Европейская киноакадемия, 1988 год

Номинации (2):
Лучшая мужская роль второго плана (Хельги Скуласон)
Лучший фильм молодого режиссера
General
Complete name: E:\Загрузки\Ofelas (1987)\Ofelas.1987.(Rus.Saami).DVDRip.avi
Format: AVI
Format/Info: Audio Video Interleave
File size: 1.46 GiB
Duration: 1h 22mn
Overall bit rate: 2 529 Kbps
Writing application: VirtualDubMod 1.5.4.1 (build 2178/release)
Writing library: VirtualDubMod build 2178/release

Video
ID: 0
Format: MPEG-4 Visual
Format profile: Advanced Simple@L5
Format settings, BVOP: 1
Format settings, QPel: No
Format settings, GMC: No warppoints
Format settings, Matrix: Custom
Codec ID: XVID
Codec ID/Hint: XviD
Duration: 1h 22mn
Bit rate: 2 195 Kbps
Width: 720 pixels
Height: 320 pixels
Display aspect ratio: 2.25:1
Frame rate: 25.000 fps
Color space: YUV
Chroma subsampling: 4:2:0
Bit depth: 8 bits
Scan type: Progressive
Compression mode: Lossy
Bits/(Pixel*Frame): 0.381
Stream size: 1.27 GiB (87%)
Writing library: XviD 1.2.0.dev47 (UTC 2006-11-01)

Audio #1
ID: 1
Format: MPEG Audio
Format version: Version 1
Format profile: Layer 3
Mode: Joint stereo
Mode extension: MS Stereo
Codec ID: 55
Codec ID/Hint: MP3
Duration: 1h 22mn
Bit rate mode: Constant
Bit rate: 128 Kbps
Channel(s): 2 channels
Sampling rate: 48.0 KHz
Compression mode: Lossy
Stream size: 75.8 MiB (5%)
Alignment: Aligned on interleaves
Interleave, duration: 40 ms (1.00 video frame)
Interleave, preload duration: 504 ms
Language: Norwegian

Audio #2
ID: 2
Format: AC-3
Format/Info: Audio Coding 3
Mode extension: CM (complete main)
Codec ID: 2000
Duration: 1h 22mn
Bit rate mode: Constant
Bit rate: 192 Kbps
Channel(s): 2 channels
Channel positions: Front: L R
Sampling rate: 48.0 KHz
Bit depth: 16 bits
Compression mode: Lossy
Stream size: 114 MiB (8%)
Alignment: Split accross interleaves
Interleave, duration: 40 ms (1.00 video frame)
Interleave, preload duration: 500 ms










Поделиться:




реклама партнёра


Вернуться к началу
 Профиль Отправить личное сообщение  
 
   Похожие торренты   Автор   Торрент   Размер 
В этой теме нет новых непрочитанных сообщений. Стеклянные марионетки / Glassdukkene (Нильс Гауп) [Детектив, Триллер, 2014] WEBRip, avo

Dracon

1 | 0

1.37 ГБ

В этой теме нет новых непрочитанных сообщений. Биркебейнеры / Birkebeinerne (Нильс Гёуп / Nils Gaup) [2016г., Норвегия, приключения, боевик, драма, HDRip] VO

Alfredovich

0 | 0

747.46 МБ

В этой теме нет новых непрочитанных сообщений. Золотое кимоно воина / Il ragazzo dal kimono d'oro [Боевик, приключения, 1987] DVDRip, Avo

salma3

226 | 18

1.38 ГБ

В этой теме нет новых непрочитанных сообщений. Заваруха на Гавайях / Hard Ticket to Hawaii [Боевик, приключения, 1987] DVDRip, Avo

salma3

12 | 8

756.59 МБ

В этой теме нет новых непрочитанных сообщений. Заваруха на Гавайях / Hard Ticket to Hawaii [Боевик, приключения, 1987] DVDRip, Avo

salma3

38 | 4

1.45 ГБ

В этой теме нет новых непрочитанных сообщений. Сладкая месть / Sweet Revenge [боевик, драма, приключения, 1987] HDTVRip, Dvo [НТВ+]

salma3

8 | 7

1.36 ГБ

В этой теме нет новых непрочитанных сообщений. По прозвищу Танцор / Прозвище Танцор / Операция «Танцор» / Her Secret Life /Code name Dancer [,Боевик, триллер, драма, приключения, 1987] DVDRip, AVO

salma3

2 | 1

1.45 ГБ


Начать новую тему Ответить на тему  [ 1 сообщение ] 




Для Мосгорсуда, Роскомнадзора и рекламодателей:: mosgorsud-torrent[собачка]yandex.ru