Торрент файл
скачать торрент магнет ссылка Добавлен: 22 янв 2012, 13:12
Размер: 1.45 ГБ
Сидеров: 58
Личеров: 6
Автор

СообщениеДобавлено: 22 янв 2012, 13:12 

Не в сети
Супермодератор
Аватара пользователя
Дата регистрации:
11 апр 2010, 18:10
Спасибо: 5801 / 7
Сообщения: 56779
Последний из Могикан/ The Last of the Mohicans



Перевод: Профессиональный (полное дублирование),субтитры: отсутствуют
Формат: HDTVRip-AVC, MKV, H.264, AC3
Страна: США
Жанр: мелодрама, приключения, военный
Продолжительность: 01:47:00
Режиссер: Майкл Манн/Michael Mann
Год выпуска: 1992

В ролях: Дэниэл Дэй-Льюис, Мэдлин Стоу, Рассел Минс, Эрик Швейг, Джоди Мей, Стивен Вэддингтон, Уэс Студи, Морис Роевз, Патрис Шеро, Эдвард Блэтчфорд

Описание:1757 год. Англо-французская война за американские колонии в самом разгаре. Дочери полковника Манро пытаются пробраться в осажденный французами английский форт. Им на помощь приходит молодой белый охотник Соколиный Глаз. Между Соколиным Глазом, выросшим среди индейцев племени могикан, и старшей из дочерей, утонченной Корой, вспыхивает взаимное чувство.

Но Кора и ее сестра попадают в плен к союзникам французов — гуронам, и от мучительной смерти их могут спасти только Соколиный Глаз и его верные друзья — индейцы…


________

Видео: 960 x 408 (2:35:1), 50,000 кадр/сек, AVC (х264), High@L3.1, ~ 1746 Kbps,0.089 bit/pixel
Аудио: 48 kHz, AC3 Dolby Digital, 2/0 (L,R) ch, ~192 kbps


Автор РИПа:ddimmon22
Общее
Уникальный идентификатор: 254332744634253566868011447486758370889 (0xBF56B4728D66A0C58355C95C279DBE49)
Полное имя: K:\РИПЫ\the_last_of_the_mohicans_[tfile.ru].mkv
Формат: Matroska
Версия формата: Version 2
Размер файла: 1,45 Гбайт
Продолжительность: 1 ч. 47 м.
Общий поток: 1939 Кбит/сек
Дата кодирования: UTC 2011-09-12 23:22:28
Программа кодирования: mkvmerge v4.9.1 ('Ich will') сборка от Aug 10 2011 09:31:20
Библиотека кодирования: libebml v1.2.1 + libmatroska v1.2.0

Видео
Идентификатор: 1
Формат: AVC
Формат/Информация: Advanced Video Codec
Профиль формата: High@L3.1
Параметр CABAC формата: Да
Параметр ReFrames формата: 8 кадров
Идентификатор кодека: V_MPEG4/ISO/AVC
Продолжительность: 1 ч. 47 м.
Битрейт: 1746 Кбит/сек
Ширина: 960 пикс.
Высота: 408 пикс.
Соотношение сторон: 2,35:1
Частота кадров: 50,000 кадр/сек
Цветовое пространство: YUV
Подвыборка цветности: 4:2:0
Битовая глубина: 8 бит
Тип развёртки: Прогрессивная
Бит/(Пиксели*Кадры): 0.089
Размер потока: 1,28 Гбайт (88%)
Библиотека кодирования: x264 core 116 r2074 2641b9e
Настройки программы: cabac=1 / ref=8 / deblock=1:-1:-1 / analyse=0x3:0x133 / me=umh / subme=7 / psy=1 / psy_rd=1.00:0.10 / mixed_ref=1 / me_range=16 / chroma_me=1 / trellis=2 / 8x8dct=1 / cqm=0 / deadzone=21,11 / fast_pskip=0 / chroma_qp_offset=-3 / threads=6 / sliced_threads=0 / nr=0 / decimate=1 / interlaced=0 / bluray_compat=0 / constrained_intra=0 / bframes=3 / b_pyramid=2 / b_adapt=2 / b_bias=0 / direct=3 / weightb=1 / open_gop=0 / weightp=2 / keyint=250 / keyint_min=25 / scenecut=40 / intra_refresh=0 / rc_lookahead=50 / rc=2pass / mbtree=1 / bitrate=1746 / ratetol=1.0 / qcomp=0.60 / qpmin=0 / qpmax=69 / qpstep=4 / cplxblur=20.0 / qblur=0.5 / ip_ratio=1.40 / aq=1:1.00

Аудио
Идентификатор: 2
Формат: AC-3
Формат/Информация: Audio Coding 3
Расширение режима: CM (complete main)
Идентификатор кодека: A_AC3
Продолжительность: 1 ч. 47 м.
Вид битрейта: Постоянный
Битрейт: 192 Кбит/сек
Каналы: 2 канала
Расположение каналов: Front: L R
Частота: 48,0 КГц
Битовая глубина: 16 бит
Метод сжатия: С потерями
Размер потока: 147 Мбайт (10%)










Поделиться:




реклама партнёра


Вернуться к началу
 Профиль Отправить личное сообщение  
 
   Похожие торренты   Автор   Торрент   Размер 
В этой теме нет новых непрочитанных сообщений. Последний из могикан / The Last of the Mohicans [боевик, драма, мелодрама, приключения, военный, 1992] Blu-ray 1080p, Dub

salma3

39 | 43

43.7 ГБ

В этой теме нет новых непрочитанных сообщений. Последний Из Могикан / The Last Of The Mohicans [Боевик, драма, мелодрама, 1992] HDRip, Mvo

salma3

65 | 5

1.45 ГБ

В этой теме нет новых непрочитанных сообщений. Забавные повадки девушек ("Последний из Могикан") (Алексей Меняйлов) [2013, мелодрама, детектив, приключения, WEBRip]

vairgin

22 | 8

232.89 МБ

В этой теме нет новых непрочитанных сообщений. Свет во тьме / Shining Through [триллер, драма, мелодрама, военный, 1992] HDTVRip, Avo

salma3

18 | 2

1.47 ГБ

В этой теме нет новых непрочитанных сообщений. Майкл Коллинз / Michael Collins [Триллер, драма, военный, биография, 1996] BDRip 720p, Dub

salma3

59 | 26

6.1 ГБ

В этой теме нет новых непрочитанных сообщений. Только для влюбленных / For Lovers Only (Майкл Полиш / Michael Polish) [2011г., мелодрама, WEB-DLRip] sub

Alfredovich

4 | 2

1.2 ГБ

В этой теме нет новых непрочитанных сообщений. Потому что я так хочу / Because I Said So (Майкл Леманн /Michael Lehmann) [2007г., комедия, мелодрама, BDRip] DUB

Alfredovich

17 | 2

1.73 ГБ


Начать новую тему Ответить на тему  [ 1 сообщение ] 




Для Мосгорсуда, Роскомнадзора и рекламодателей:: mosgorsud-torrent[собачка]yandex.ru