Торрент файл
скачать торрент магнет ссылка Добавлен: 22 янв 2012, 13:11
Размер: 744.61 МБ
Сидеров: 7
Личеров: 5
Автор

СообщениеДобавлено: 22 янв 2012, 13:11 

Не в сети
Супермодератор
Аватара пользователя
Дата регистрации:
11 апр 2010, 18:10
Спасибо: 5802 / 7
Сообщения: 56779
Индиана Джонс и Храм Судьбы / Indiana Jones and the Temple of Doom

Перевод: Профессиональный (многоголосый, закадровый), cубтитры: отсутствуют
Формат: LowHDTVRip, AVI, XviD, MP3
Страна: США
Режиссер: Стивен Спилберг
Жанр: Боевик, приключения
Продолжительность: 01:53:34
Год выпуска: 1984
В ролях: Харрисон Форд, Кейт Кэпшоу, Джонатан Ке Кван, Амриш Пури, Рошан Сет, Филип Стоун, Рой Чяо, Дэвид Ип, Рик Янг, Цзю Чуака
Описание: Вторая часть невероятных похождений прославленного археолога и искателя приключений Индианы Джонса. В этот раз бесстрашный доктор Джонс совершит путешествие в сердце Гималаев вместе с ресторанной певичкой Уилли Скотт и своим верным маленьким помощником Коротышкой.

Здесь, среди величественных гор, археологу и его спутникам предстоит столкнуться кровавым культом поклонения древней Богине Смерти — Кали. Станет ли Индиана следующим несчастным, погибшим на жутком алтаре человеческих жертвоприношений, или ему, как всегда, удастся вырваться из цепких лап страха и разобраться со злодеями.




Видео: 688x288 (2.39:1), 23.976 fps, XviD build 50 ~741 kbps avg, 0.16 bit/pixel
Аудио: 48 kHz, MPEG Layer 3, 2 ch, ~128.00 kbps avg

General
Complete name: D:\Видео\Кино\indiana_jones_and_the_temple_of_doom_[tfile.ru].avi
Format: AVI
Format/Info: Audio Video Interleave
File size: 745 MiB
Duration: 1h 58mn
Overall bit rate: 879 Kbps
Writing application: VirtualDubMod 1.5.10.2 (build 2540/release)
Writing library: VirtualDubMod build 2540/release

Video
ID: 0
Format: MPEG-4 Visual
Format profile: Advanced Simple@L5
Format settings, BVOP: 1
Format settings, QPel: No
Format settings, GMC: No warppoints
Format settings, Matrix: Default (MPEG)
Codec ID: XVID
Codec ID/Hint: XviD
Duration: 1h 58mn
Bit rate: 742 Kbps
Width: 688 pixels
Height: 288 pixels
Display aspect ratio: 2.35:1
Frame rate: 23.976 fps
Color space: YUV
Chroma subsampling: 4:2:0
Bit depth: 8 bits
Scan type: Progressive
Compression mode: Lossy
Bits/(Pixel*Frame): 0.156
Stream size: 628 MiB (84%)
Writing library: XviD 1.2.1 (UTC 2008-12-04)

Audio
ID: 1
Format: MPEG Audio
Format version: Version 1
Format profile: Layer 3
Codec ID: 55
Codec ID/Hint: MP3
Duration: 1h 58mn
Bit rate mode: Constant
Bit rate: 128 Kbps
Channel(s): 2 channels
Sampling rate: 48.0 KHz
Compression mode: Lossy
Stream size: 108 MiB (15%)
Alignment: Aligned on interleaves
Interleave, duration: 42 ms (1.00 video frame)
Interleave, preload duration: 504 ms
Writing library: LAME3.97
Encoding settings: -m s -V 4 -q 2 -lowpass 17 -b 128






Поделиться:




реклама партнёра


Вернуться к началу
 Профиль Отправить личное сообщение  
 
   Похожие торренты   Автор   Торрент   Размер 
В этой теме нет новых непрочитанных сообщений. Индиана Джонс и Храм Судьбы / Indiana Jones and the Temple of Doom [Боевик, приключения, 1984] BDRip 720p, Mvo+Sub

salma3

8 | 1

12.1 ГБ

В этой теме нет новых непрочитанных сообщений. Джессика Джонс / Jessica Jones [01х01-09 из 13] (С.Дж. Кларксон, Дэвид Петрарка, Стивен Серджик) [2015, Фантастика, боевик, драма, криминал, WEBRip | Hamsterstudio]

Dracon

56 | 54

4.07 ГБ

В этой теме нет новых непрочитанных сообщений. Джессика Джонс / Jessica Jones [01х01-13 из 13] (С.Дж. Кларксон, Дэвид Петрарка, Стивен Серджик) [2015, фантастика, боевик, драма, криминал, WEBRip | BaibaKo]

Dracon

10 | 7

7.61 ГБ

В этой теме нет новых непрочитанных сообщений. Джессика Джонс / Jessica Jones [01х01-13 из 13] (С.Дж. Кларксон, Дэвид Петрарка, Стивен Серджик) [2015, фантастика, боевик, драма, криминал, WEBRip | NewStudio]

Dracon

146 | 205

8.76 ГБ

В этой теме нет новых непрочитанных сообщений. Джессика Джонс / Jessica Jones [01х01-06 из 13] (С.Дж. Кларксон, Дэвид Петрарка, Стивен Серджик) [2015, фантастика, боевик, драма, криминал, WEBRip 720p | SunshineStudio]

Dracon

7 | 11

3.29 ГБ

В этой теме нет новых непрочитанных сообщений. Джессика Джонс / Jessica Jones [01х01-06 из 13] (С.Дж. Кларксон, Дэвид Петрарка, Стивен Серджи) [2015, Фантастика, боевик, драма, криминал, WEBRip 720p | NewStudio]

Dracon

195 | 116

7.81 ГБ

В этой теме нет новых непрочитанных сообщений. Джессика Джонс / Jessica Jones [01х01-13 из 13] (С.Дж. Кларксон, Дэвид Петрарка, Стивен Серджи) [2015, Фантастика, боевик, драма, криминал, WEBRip 720p | NewStudio]

Dracon

4 | 8

17.53 ГБ


Начать новую тему Ответить на тему  [ 1 сообщение ] 




Для Мосгорсуда, Роскомнадзора и рекламодателей:: mosgorsud-torrent[собачка]yandex.ru