Торрент файл
скачать торрент магнет ссылка Добавлен: 22 янв 2012, 13:11
Размер: 744.71 МБ
Сидеров: 11
Личеров: 7
Автор

СообщениеДобавлено: 22 янв 2012, 13:11 

Не в сети
Супермодератор
Аватара пользователя
Дата регистрации:
11 апр 2010, 18:10
Спасибо: 5799 / 7
Сообщения: 56779
Индиана Джонс: В поисках утраченного ковчега / Raiders of the Lost Ark

Перевод: Профессиональный (многоголосый, закадровый), cубтитры: отсутствуют
Формат: HDRip, AVI, XviD, MP3
Страна: США
Режиссер: Стивен Спилберг
Жанр: Боевик, приключения
Продолжительность: 01:50:36
Год выпуска: 1981
В ролях: Харрисон Форд, Карен Аллен, Пол Фримен, Рональд Лейси, Джон Рис-Дэвис, Денхолм Эллиот, Альфред Молина, Вольф Калер, Энтони Хиггинс, Вик Тэблиан
Описание: Известный археолог и специалист по оккультным наукам доктор Джонс получает опасное задание от правительства США. Он должен отправиться на поиски уникальной реликвии — священного Ковчега. Но Индиана и не подозревает, что аналогичный приказ уже получили тайные агенты Адольфа Гитлера…

Этим потрясающим фильмом продюсер Джордж Лукас и режиссер Стивен Спилберг положили начало саги о странствиях благородного доктора Джонса по всевозможным уголкам земного шара.




Видео: 688x288 (2.39:1), 23.976 fps, XviD build 50 ~766 kbps avg, 0.16 bit/pixel
Аудио: 48 kHz, MPEG Layer 3, 2 ch, ~128.00 kbps avg

General
Complete name: D:\Видео\Кино\indiana_jones_and_the_raiders_of_last_ark_[tfile.ru].avi
Format: AVI
Format/Info: Audio Video Interleave
File size: 745 MiB
Duration: 1h 55mn
Overall bit rate: 904 Kbps
Writing application: VirtualDubMod 1.6.0.0 SURROUND (build 2560/release)
Writing library: VirtualDubMod build 2560/release

Video
ID: 0
Format: MPEG-4 Visual
Format profile: Advanced Simple@L5
Format settings, BVOP: 1
Format settings, QPel: No
Format settings, GMC: No warppoints
Format settings, Matrix: Default (MPEG)
Codec ID: XVID
Codec ID/Hint: XviD
Duration: 1h 55mn
Bit rate: 766 Kbps
Width: 688 pixels
Height: 288 pixels
Display aspect ratio: 2.35:1
Frame rate: 23.976 fps
Color space: YUV
Chroma subsampling: 4:2:0
Bit depth: 8 bits
Scan type: Progressive
Compression mode: Lossy
Bits/(Pixel*Frame): 0.161
Stream size: 632 MiB (85%)
Writing library: XviD 1.2.1 (UTC 2008-12-04)

Audio
ID: 1
Format: MPEG Audio
Format version: Version 1
Format profile: Layer 3
Codec ID: 55
Codec ID/Hint: MP3
Duration: 1h 55mn
Bit rate mode: Constant
Bit rate: 128 Kbps
Channel(s): 2 channels
Sampling rate: 48.0 KHz
Compression mode: Lossy
Stream size: 105 MiB (14%)
Alignment: Aligned on interleaves
Interleave, duration: 42 ms (1.00 video frame)
Interleave, preload duration: 504 ms
Writing library: LAME3.97
Encoding settings: -m s -V 4 -q 2 -lowpass 17 -b 128







Поделиться:




реклама партнёра


Вернуться к началу
 Профиль Отправить личное сообщение  
 
   Похожие торренты   Автор   Торрент   Размер 
В этой теме нет новых непрочитанных сообщений. Индиана Джонс и Храм Судьбы / Indiana Jones and the Temple of Doom [Боевик, приключения, 1984] BDRip 720p, Mvo+Sub

salma3

8 | 1

12.1 ГБ

В этой теме нет новых непрочитанных сообщений. Большой и добрый великан / The BFG (Стивен Спилберг) [2016, Фэнтези, экранизация, приключения, семейный, HDRip | Line] Dub

marya111

642 | 54

746.05 МБ

В этой теме нет новых непрочитанных сообщений. Большой и добрый великан / The BFG (Стивен Спилберг) [2016, Фэнтези, экранизация, приключения, семейный, HDRip-AVC | Line]

marya111

571 | 24

1.45 ГБ

В этой теме нет новых непрочитанных сообщений. Всадники солнца / Raiders of the Sun [Фантастика, боевик, приключения, 1992] DVDRip, Avo

salma3

3 | 3

1.46 ГБ

В этой теме нет новых непрочитанных сообщений. Джессика Джонс / Jessica Jones [01х01-13 из 13] (С.Дж. Кларксон, Дэвид Петрарка, Стивен Серджик) [2015, фантастика, боевик, драма, криминал, WEBRip | BaibaKo]

Dracon

10 | 7

7.61 ГБ

В этой теме нет новых непрочитанных сообщений. Джессика Джонс / Jessica Jones [01х01-13 из 13] (С.Дж. Кларксон, Дэвид Петрарка, Стивен Серджик) [2015, фантастика, боевик, драма, криминал, WEBRip | NewStudio]

Dracon

146 | 205

8.76 ГБ

В этой теме нет новых непрочитанных сообщений. Джессика Джонс / Jessica Jones [01х01-09 из 13] (С.Дж. Кларксон, Дэвид Петрарка, Стивен Серджик) [2015, Фантастика, боевик, драма, криминал, WEBRip | Hamsterstudio]

Dracon

56 | 54

4.07 ГБ


Начать новую тему Ответить на тему  [ 1 сообщение ] 




Для Мосгорсуда, Роскомнадзора и рекламодателей:: mosgorsud-torrent[собачка]yandex.ru