Торрент файл
скачать торрент магнет ссылка Добавлен: 22 янв 2012, 13:10
Размер: 2.21 ГБ
Сидеров: 53
Личеров: 12
Автор

СообщениеДобавлено: 22 янв 2012, 13:10 

Не в сети
Супермодератор
Аватара пользователя
Дата регистрации:
11 апр 2010, 18:10
Спасибо: 5801 / 7
Сообщения: 56779
Аполлон 13 / Apollo 13

Перевод: Профессиональный (полное дублирование), cубтитры: Русские (две редакции) (полные, отключаемые)
Формат: HDRip-AVC, MKV, H.264, AC3
Страна: США
Режиссер: Рон Ховард
Жанр: приключения, история, драма
Продолжительность: 02:19:44
Год выпуска: 1995
В ролях: Том Хэнкс, Билл Пэкстон, Кевин Бейкон, Гэри Синиз, Эд Харрис, Кэтлин Куинлен, Мэри Кейт Шеллхардт, Эмили Энн Ллойд, Мико Хьюз, Макс Эллиотт Слэйд
Описание: Фильм о неудачной лунной миссии «Аполлон-13»-одном из самых драматических моментов освоения космоса. В 1970 «Аполлон-13» должен был стать третьим космическим кораблём, который доставил бы астронавтов на Луну. Однако уже на подлёте к цели на корабле произошла серьёзная авария, которая не только поставила крест на высадке, но и создала угрозу жизни экипажа.

Видео: 1280x544 (2,35:1), 23,976 fps, AVC (х264), High@L4.1 ~1900 kbps avg, 0.114 bit/pixel
Аудио: 48 kHz, AC-3, 6 ch, ~384.00 kbps avg


Автор РИПа:

Фильм снят по книге «Утерянная Луна», написанной астронавтом Джимом Ловеллом в соавторстве с Джеффри Клюгером. Как и книга, лента повествует о реальных событиях, случившихся в апреле 1970 года.

В эпизодической роли в фильме снялся сам командир Аполлона-13 Джеймс Ловелл. В финале фильма он, в образе одного из офицеров на палубе авианосца Хорнет, жмет руку Тому Хэнксу, играющему его самого.

Сцены на корабле, в которых была необходима невесомость, снимались в условиях настоящей невесомости при полёте на самолёте-лаборатории по параболической траектории (спуск-подъём-спуск и т. д.). В салоне самолёта для съёмок были оборудованы две тесных кабины-точные копии внутренних помещений корабля Аполлон.

В фильме можно видеть, что в то время, как команда идёт по мосту к кораблю, публика им аплодирует. В действительности от посадки команды в корабль до старта проходит приблизительно два часа сорок минут, это значит, что зрителям нужно было поскучать пару часов от начала посадки до старта.

Из девяти поворотных стрел, которые прикреплены к космическому кораблю, три нижних и одна верхняя отводятся в сторону задолго до старта. Оставшиеся пять стрел уходят от ракеты одновременно перед пуском. В фильме было показано, как восемь стрел сразу перед стартом отходят от ракеты одна за одной.

В эпизоде, где показана последняя коррекция траектории корабля, ориентация показана неверно. На самом деле ось корабля была направлена не к Земле а перпендикулярно к ней. Сама коррекция длилась не 39 сек, а 14 секунд.

При старте с околоземной орбиты, во время работы двигателя третьей ступени ракеты S-IVB, показано, что связка ракета-корабль направлена продольной осью к Луне. На самом деле старт производится с точки околоземной орбиты, противоположной Луне, а ось ракеты направлена перпендикулярно линии корабль-Луна (то есть астронавты в момент старта не могли видеть Луну, так как она была закрыта Землёй).

При подлёте к Луне, когда корабль заходит за край лунного диска и в этот момент теряется радиосвязь с Землёй, показано, что Солнце также скрывается за лунным горизонтом. Такое может быть, если бы Луна в этот день находилась в фазе полнолуния. Однако на самом деле Луна в этот день была в фазе «молодая горбушка» (9 дней от новолуния или примерно 2 дня после первой четверти). Время высадки было выбрано из расчёта низкого положения Солнца над горизонтом в районе посадки недалеко от кратера Фра Мауро.

Альбом группы The Beatles «Let It Be» на самом деле вышел месяц спустя после запуска Аполлона-13.


Общее
Уникальный идентификатор : 204943156386408083481868546480022666733 (0x9A2E9DBDDA73FBF6B9625D04156EBDED)
Полное имя : f:\Downloads\apollo_13_[tfile.ru].mkv
Формат : Matroska
Размер файла : 2,21 Гбайт
Продолжительность : 2 ч. 19 м.
Общий поток : 2267 Кбит/сек
Название фильма : Apollo 13 (1995) 1080p sum
Дата кодирования : UTC 2011-10-16 02:44:51
Программа кодирования : mkvmerge v4.6.0 ('Still Crazy After All These Years') сборка от Mar 10 2011 02:50:32
Библиотека кодирования : libebml v1.2.0 + libmatroska v1.1.0

Видео
Идентификатор : 1
Формат : AVC
Формат/Информация : Advanced Video Codec
Профиль формата : High@L4.1
Параметр CABAC формата : Да
Параметр ReFrames формата : 3 кадра
Режим смешивания : Header stripping
Идентификатор кодека : V_MPEG4/ISO/AVC
Продолжительность : 2 ч. 19 м.
Битрейт : 1900 Кбит/сек
Ширина : 1280 пикс.
Высота : 544 пикс.
Соотношение сторон : 2,35:1
Режим частоты кадров : Переменный
Частота кадров : 23,976 кадр/сек
Цветовое пространство : YUV
Подвыборка цветности : 4:2:0
Битовая глубина : 8 бит
Тип развёртки : Прогрессивная
Бит/(Пиксели*Кадры) : 0.114
Размер потока : 1,79 Гбайт (81%)
Библиотека кодирования : x264 core 116 r2019M 9cc407d
Настройки программы : cabac=1 / ref=3 / deblock=1:-1:-1 / analyse=0x3:0x133 / me=hex / subme=7 / psy=1 / psy_rd=1.00:0.15 / mixed_ref=1 / me_range=16 / chroma_me=1 / trellis=1 / 8x8dct=1 / cqm=0 / deadzone=21,11 / fast_pskip=1 / chroma_qp_offset=-3 / threads=8 / sliced_threads=0 / nr=0 / decimate=1 / interlaced=0 / bluray_compat=0 / constrained_intra=0 / bframes=3 / b_pyramid=1 / b_adapt=2 / b_bias=0 / direct=3 / weightb=1 / open_gop=0 / weightp=2 / keyint=230 / keyint_min=23 / scenecut=40 / intra_refresh=0 / rc_lookahead=40 / rc=abr / mbtree=1 / bitrate=1900 / ratetol=1.0 / qcomp=0.60 / qpmin=10 / qpmax=51 / qpstep=4 / vbv_maxrate=31250 / vbv_bufsize=31250 / nal_hrd=none / ip_ratio=1.40 / aq=1:1.00
Язык : English

Аудио
Идентификатор : 2
Формат : AC-3
Формат/Информация : Audio Coding 3
Расширение режима : CM (complete main)
Режим смешивания : Header stripping
Идентификатор кодека : A_AC3
Продолжительность : 2 ч. 19 м.
Вид битрейта : Постоянный
Битрейт : 384 Кбит/сек
Каналы : 6 каналов
Расположение каналов : Front: L C R, Side: L R, LFE
Частота : 48,0 КГц
Битовая глубина : 16 бит
Метод сжатия : С потерями
Размер потока : 384 Мбайт (17%)
Заголовок : DUB
Язык : Russian

Текст #1
Идентификатор : 3
Формат : UTF-8
Идентификатор кодека : S_TEXT/UTF8
Идентификатор кодека/Информация : UTF-8 Plain Text
Язык : Russian

Текст #2
Идентификатор : 4
Формат : UTF-8
Идентификатор кодека : S_TEXT/UTF8
Идентификатор кодека/Информация : UTF-8 Plain Text
Язык : Russian

Меню
00:00:00.000 : en:00:00:00.000
00:09:39.120 : en:00:09:39.120
00:19:49.355 : en:00:19:49.355
00:34:21.851 : en:00:34:21.851
00:45:15.338 : en:00:45:15.338
00:49:38.184 : en:00:49:38.184
01:01:59.674 : en:01:01:59.674
01:05:52.657 : en:01:05:52.657
01:10:05.451 : en:01:10:05.451
01:15:08.045 : en:01:15:08.045
01:17:08.040 : en:01:17:08.040
01:19:41.610 : en:01:19:41.610
01:35:12.582 : en:01:35:12.582
01:39:11.154 : en:01:39:11.154
01:48:21.495 : en:01:48:21.495
01:56:39.618 : en:01:56:39.618
01:58:49.914 : en:01:58:49.914
02:05:18.094 : en:02:05:18.094
02:09:07.156 : en:02:09:07.156
02:14:06.538 : en:02:14:06.538
















Поделиться:




реклама партнёра


Вернуться к началу
 Профиль Отправить личное сообщение  
 
   Похожие торренты   Автор   Торрент   Размер 
В этой теме нет новых непрочитанных сообщений. Аполлон 13 / Apollo 13 [Драма, приключения, история, 1995] BDRip 1080p, Dub+Sub

salma3

92 | 13

7.94 ГБ

В этой теме нет новых непрочитанных сообщений. В сердце моря / In the Heart of the Sea (Рон Ховард) [2015, боевик, триллер, драма, приключения, биография, история, HDRip] Dub

Nickolas3435

18969 | 903

1.46 ГБ

В этой теме нет новых непрочитанных сообщений. В сердце моря / In the Heart of the Sea (Рон Ховард) [2015, боевик, триллер, драма, приключения, биография, история, HDRip] Dub

Nickolas3435

2703 | 56

2.19 ГБ

В этой теме нет новых непрочитанных сообщений. Зверополис / Zootopia (Байрон Ховард, Рич Мур, Джаред Буш) [2016, мультфильм, боевик, комедия, криминал, приключения, семейный, HDRip | Лицензия] Dub

marya111

2178 | 80

1.45 ГБ

В этой теме нет новых непрочитанных сообщений. Бен-Гур / Ben-Hur [драма, приключения, история, 2016] HDRip, Dub [Чистый звук]

salma3

1605 | 264

2.05 ГБ

В этой теме нет новых непрочитанных сообщений. Бен-Гур / Ben-Hur [драма, приключения, история, 2016] HDRip, Dub [Чистый звук]

salma3

1155 | 228

1.37 ГБ

В этой теме нет новых непрочитанных сообщений. Бен-Гур / Ben-Hur [драма, приключения, история, 2016] HDRip, Dub [Чистый звук]

salma3

202 | 40

699.69 МБ


Начать новую тему Ответить на тему  [ 1 сообщение ] 




Для Мосгорсуда, Роскомнадзора и рекламодателей:: mosgorsud-torrent[собачка]yandex.ru