Торрент файл
скачать торрент магнет ссылка Добавлен: 22 янв 2012, 13:10
Размер: 2.08 ГБ
Сидеров: 100
Личеров: 7
Автор

СообщениеДобавлено: 22 янв 2012, 13:10 

Не в сети
Супермодератор
Аватара пользователя
Дата регистрации:
11 апр 2010, 18:10
Спасибо: 5801 / 7
Сообщения: 56779
Золото дураков / Fool's Gold

Перевод: Профессиональный (полное дублирование), cубтитры: отсутствуют
Формат: HDRip, MKV, H.264, AC3
Страна: США
Режиссер: Энди Теннант
Жанр: комедия, приключения
Продолжительность: 01:52:26
Год выпуска: 2008
В ролях: Мэттью МакКонахи, Кейт Хадсон, Дональд Сазерленд, Алексис Дзена, Юэн Бремнер, Рэй Уинстон, Кевин Харт, Мальколм-Джамал Уорнер, Брайан Хукс, Дэвид Робертс
Описание: История о двух кладоискателях, которые сначала развелись, разочаровавшись в своём увлечении и друг в друге, а затем разом напали на след настоящего сокровища.

Видео: 1280x528 (2,40:1), 23,976 fps, AVC (х264), High@L4.1 ~2300 kbps avg, 0.142 bit/pixel
Аудио: 48 kHz, AC-3, 6 ch, ~384.00 kbps avg


Автор РИПа:
Общее
Уникальный идентификатор : 191745511379887170301688262614728918727 (0x9040D79ADE049BBC996BD2F94CED46C7)
Полное имя : f:\Downloads\fool's_gold_[tfile.ru].mkv
Формат : Matroska
Размер файла : 2,08 Гбайт
Продолжительность : 1 ч. 52 м.
Общий поток : 2651 Кбит/сек
Дата кодирования : UTC 2011-10-26 13:17:05
Программа кодирования : mkvmerge v4.6.0 ('Still Crazy After All These Years') сборка от Mar 10 2011 02:50:32
Библиотека кодирования : libebml v1.2.0 + libmatroska v1.1.0

Видео
Идентификатор : 1
Формат : AVC
Формат/Информация : Advanced Video Codec
Профиль формата : High@L4.1
Параметр CABAC формата : Да
Параметр ReFrames формата : 3 кадра
Режим смешивания : Header stripping
Идентификатор кодека : V_MPEG4/ISO/AVC
Продолжительность : 1 ч. 52 м.
Битрейт : 2300 Кбит/сек
Ширина : 1280 пикс.
Высота : 528 пикс.
Соотношение сторон : 2,40:1
Режим частоты кадров : Переменный
Частота кадров : 23,976 кадр/сек
Цветовое пространство : YUV
Подвыборка цветности : 4:2:0
Битовая глубина : 8 бит
Тип развёртки : Прогрессивная
Бит/(Пиксели*Кадры) : 0.142
Размер потока : 1,74 Гбайт (84%)
Библиотека кодирования : x264 core 116 r2019M 9cc407d
Настройки программы : cabac=1 / ref=3 / deblock=1:0:0 / analyse=0x3:0x133 / me=hex / subme=7 / psy=1 / psy_rd=1.00:0.20 / mixed_ref=1 / me_range=16 / chroma_me=1 / trellis=1 / 8x8dct=1 / cqm=0 / deadzone=21,11 / fast_pskip=1 / chroma_qp_offset=-3 / threads=8 / sliced_threads=0 / nr=0 / decimate=1 / interlaced=0 / bluray_compat=0 / constrained_intra=0 / bframes=3 / b_pyramid=1 / b_adapt=2 / b_bias=0 / direct=3 / weightb=1 / open_gop=0 / weightp=2 / keyint=230 / keyint_min=23 / scenecut=40 / intra_refresh=0 / rc_lookahead=40 / rc=abr / mbtree=1 / bitrate=2300 / ratetol=1.0 / qcomp=0.60 / qpmin=10 / qpmax=51 / qpstep=4 / vbv_maxrate=31250 / vbv_bufsize=31250 / nal_hrd=none / ip_ratio=1.40 / aq=1:1.00
Язык : English

Аудио
Идентификатор : 2
Формат : AC-3
Формат/Информация : Audio Coding 3
Расширение режима : CM (complete main)
Режим смешивания : Header stripping
Идентификатор кодека : A_AC3
Продолжительность : 1 ч. 52 м.
Вид битрейта : Постоянный
Битрейт : 384 Кбит/сек
Каналы : 6 каналов
Расположение каналов : Front: L C R, Side: L R, LFE
Частота : 48,0 КГц
Битовая глубина : 16 бит
Метод сжатия : С потерями
Размер потока : 309 Мбайт (14%)
Заголовок : DUB
Язык : Russian
















Поделиться:




реклама партнёра


Вернуться к началу
 Профиль Отправить личное сообщение  
 
   Похожие торренты   Автор   Торрент   Размер 
В этой теме нет новых непрочитанных сообщений. Дураков нет / Nobody's Fool [драма, комедия, 1994] WEB-DL 720p, 2Dvo+Avo+Sub

salma3

67 | 6

3.88 ГБ

В этой теме нет новых непрочитанных сообщений. Золото / Gold [драма, приключения, вестерн, 2013] HDRip, dvo

Dracon

100 | 5

1.37 ГБ

В этой теме нет новых непрочитанных сообщений. Золото / Gold [драма, приключения, вестерн, 2013] HDRip, Dvo [НТВ+]

Dracon

129 | 3

1.46 ГБ

В этой теме нет новых непрочитанных сообщений. Золото / Gold [драма, приключения, вестерн, 2013] BDRip 1080p, Mvo+Sub

salma3

67 | 3

4.72 ГБ

В этой теме нет новых непрочитанных сообщений. Золото / Gold [драма, приключения, вестерн, 2013] BDRip 720p, Mvo+Sub

salma3

98 | 2

2.69 ГБ

В этой теме нет новых непрочитанных сообщений. Золото Маккенны / Mackenna's Gold [мелодрама, вестерн, приключения, 1969] BDRip 1080p, Dub

salma3

66 | 21

11.59 ГБ

В этой теме нет новых непрочитанных сообщений. Золото / Gold (Томас Арслан) [2013, драма, приключения, вестерн, BDRip | Чистый Звук] mvo

Nickolas3435

102 | 6

1.45 ГБ


Начать новую тему Ответить на тему  [ 1 сообщение ] 




Для Мосгорсуда, Роскомнадзора и рекламодателей:: mosgorsud-torrent[собачка]yandex.ru