Торрент файл
скачать торрент магнет ссылка Добавлен: 22 янв 2012, 13:10
Размер: 1.5 ГБ
Сидеров: 123
Личеров: 6
Автор

СообщениеДобавлено: 22 янв 2012, 13:10 

Не в сети
Супермодератор
Аватара пользователя
Дата регистрации:
11 апр 2010, 18:10
Спасибо: 5802 / 7
Сообщения: 56779
Конан-варвар / Conan the Barbarian


Перевод: Профессиональный (полное дублирование) [лицензия], cубтитры: отсутствуют
Формат: HDRip-AVC, MKV, H.264, AC3
Страна: США
Режиссер: Маркус Ниспел
Жанр: фэнтези, боевик, приключения
Продолжительность: 01:52:42
Год выпуска: 2011

В ролях: Джейсон Момоа, Рон Перлман, Стивен Лэнг, Рейчел Николс, Роуз МакГоун, Боб Сапп, Лео Ховард, Стив О’Доннелл, Нонсо Анози, Раад Рави

Описание: Природа наделила его силой. Гибель отца сделала его свирепым. Великий киммерийский воин Конан отправляется в дальнее странствие, чтобы совершить отмщение за кровь своего рода. Но поиски, которые начинаются как личная вендетта, вскоре оборачиваются эпической схваткой со сверхъестественными силами, поработившими народы великой Хайбории. Киммерийский воин — последняя надежда на спасение…



Видео: 912 x 376 (2:40:1), 23.976 fps, AVC (х264) High@L4.1, ~ 1462 Kbps, 0.178 bit/pixel
Аудио: 48 kHz, AC3 Dolby Digital, 3/2 (L,C,R,l,r) + LFE ch, ~448 kbps avg


Рип: jeenart

General
Unique ID: 248117188712828202817502414835018095306 (0xBAA9A1E16C1C65A38E86062F4787DACA)
Complete name: F:\Мои релизы\Все релизы 10\conan_the_barbarian_[tfile.ru].mkv
Format: Matroska
File size: 1.50 GiB
Duration: 1h 52mn
Overall bit rate: 1 911 Kbps
Encoded date: UTC 2011-11-08 22:05:55
Writing application: mkvmerge v4.6.0 ('Still Crazy After All These Years') сборка от Apr1 2011 21:01:49
Writing library: libebml v1.2.0 + libmatroska v1.1.0

Video
ID: 1
Format: AVC
Format/Info: Advanced Video Codec
Format profile: High@L4.1
Format settings, CABAC: Yes
Format settings, ReFrames: 4 frames
Muxing mode: Header stripping
Codec ID: V_MPEG4/ISO/AVC
Duration: 1h 52mn
Bit rate: 1 462 Kbps
Width: 912 pixels
Height: 376 pixels
Display aspect ratio: 2.40:1
Frame rate: 23.976 fps
Color space: YUV
Chroma subsampling: 4:2:0
Bit depth: 8 bits
Scan type: Progressive
Bits/(Pixel*Frame): 0.178
Stream size: 1.12 GiB (75%)
Writing library: x264 core 115 r1937 aa21558
Encoding settings: cabac=1 / ref=3 / deblock=1:-1:-1 / analyse=0x3:0x113 / me=hex / subme=7 / psy=1 / psy_rd=1.00:0.10 / mixed_ref=1 / me_range=16 / chroma_me=1 / trellis=1 / 8x8dct=1 / cqm=0 / deadzone=21,11 / fast_pskip=1 / chroma_qp_offset=-3 / threads=6 / sliced_threads=0 / nr=0 / decimate=1 / interlaced=0 / bluray_compat=0 / constrained_intra=0 / bframes=3 / b_pyramid=2 / b_adapt=1 / b_bias=0 / direct=3 / weightb=1 / open_gop=0 / weightp=2 / keyint=250 / keyint_min=23 / scenecut=40 / intra_refresh=0 / rc_lookahead=40 / rc=2pass / mbtree=1 / bitrate=1462 / ratetol=1.0 / qcomp=0.60 / qpmin=0 / qpmax=69 / qpstep=4 / cplxblur=20.0 / qblur=0.5 / ip_ratio=1.40 / aq=1:1.00

Audio
ID: 2
Format: AC-3
Format/Info: Audio Coding 3
Mode extension: CM (complete main)
Muxing mode: Header stripping
Codec ID: A_AC3
Duration: 1h 52mn
Bit rate mode: Constant
Bit rate: 448 Kbps
Channel(s): 6 channels
Channel positions: Front: L C R, Side: L R, LFE
Sampling rate: 48.0 KHz
Bit depth: 16 bits
Compression mode: Lossy
Stream size: 361 MiB (23%)













Поделиться:




реклама партнёра


Вернуться к началу
 Профиль Отправить личное сообщение  
 
   Похожие торренты   Автор   Торрент   Размер 
В этой теме нет новых непрочитанных сообщений. Конан-варвар / Conan the Barbarian [боевик, приключения, фэнтази, 1982] HDRip, Dvo

salma3

57 | 2

1.45 ГБ

В этой теме нет новых непрочитанных сообщений. Конан-разрушитель / Conan the Destroyer [фэнтези, боевик, приключения, 1984] HDRip, Mvo

salma3

98 | 7

1.45 ГБ

В этой теме нет новых непрочитанных сообщений. Реверс 666 / Backmask (Маркус Ниспел) [ужасы, триллер, 2015] HDRip, dub [Официальный звук]

Dracon

324 | 14

1.37 ГБ

В этой теме нет новых непрочитанных сообщений. Реверс / Backmask (Маркус Ниспел) [ужасы, триллер, 2015] BDRip 720p, dub [Официальный звук]

Dracon

22 | 3

4.49 ГБ

В этой теме нет новых непрочитанных сообщений. Королева Варваров 2 / Barbarian Queen II [Боевик, приключения, 1989] DVDRip, Avo

salma3

13 | 8

1.36 ГБ

В этой теме нет новых непрочитанных сообщений. Королева Варваров / Barbarian Queen [Боевик, приключения, 1985] DVDRip, Dvo

salma3

11 | 7

1.36 ГБ

В этой теме нет новых непрочитанных сообщений. Barbarian Overlords - Barbarian Overlords [2011, Classic Rock, MP3]

PriZraK

0 | 1

72.67 МБ


Начать новую тему Ответить на тему  [ 1 сообщение ] 




Для Мосгорсуда, Роскомнадзора и рекламодателей:: mosgorsud-torrent[собачка]yandex.ru