Торрент файл
скачать торрент магнет ссылка Добавлен: 22 янв 2012, 13:08
Размер: 1.37 ГБ
Сидеров: 185
Личеров: 15
Автор

СообщениеДобавлено: 22 янв 2012, 13:08 

Не в сети
Супермодератор
Аватара пользователя
Дата регистрации:
11 апр 2010, 18:10
Спасибо: 5960 / 7
Сообщения: 56765
[b]Сокровища Трои / Der geheimnisvolle Schatz von Troja[/b]

Перевод: Профессиональный (двухголосый) R5, cубтитры: отсутствуют

Формат: DVDRip, AVI, DivX, MP3

Страна: Германия

Режиссер: Дрор Заxави

Жанр: приключения

Продолжительность: 02:56:59

Год выпуска: 2007

В ролях: Хайно Ферч, Мелани Доути, Мераб Нинидзе, Джастус фон Донаньи, Клаудия Михельсен, Костя Ульман, Макс фон Тун, Маттиас Кеберлин, Эрдал Илдиз

Описание: Более трёх тысяч лет живёт легенда о Трое — городе, разрушенном греками после длительной осады. Древний миф о несметных богатствах, погребённых под руинами легендарного города, издавна не даёт покоя искателям приключений. Генрих Шлиман, археолог и один из самых богатых людей в Европе, ещё в юности был очарован Илиадой Гомера и всегда мечтал найти этот давно потерянный город.

Осуществляя свою мечту, Шлиман, собрав команду, отправляется в экспедицию на поиски Трои и её невиданных сокровищ. Это будет очень трудный и суровый поход, но ни упорное сопротивление турецких властей, ни зависть, ни насмешки, ни вероломные интриги — ничто не может остановить человека, одержимого поисками затерянного города.


____

Видео: 704x384 (1.83:1), 25 fps, DivX Codec 6.8.5/6.9.1 ~967 kbps avg, 0.14 bit/pixel
Аудио: 48 kHz, MPEG Layer 3, 2 ch, ~128.00 kbps avg

Доп. информация: Бюджет€8 300 000

General
Complete name: E:\geheimnisvolle_schatz_von_troja_[tfile.ru].avi
Format: AVI
Format/Info: Audio Video Interleave
File size: 1.37 GiB
Duration: 2h 56mn
Overall bit rate: 1 106 Kbps
Movie name: Geheimnisvolle Schatz von Troja, Der (2007)

Video
ID: 0
Format: MPEG-4 Visual
Format settings, BVOP: 1
Format settings, QPel: No
Format settings, GMC: No warppoints
Format settings, Matrix: Default (H.263)
Muxing mode: Packed bitstream
Codec ID: DX50
Codec ID/Hint: DivX 5
Duration: 2h 56mn
Bit rate: 968 Kbps
Width: 704 pixels
Height: 384 pixels
Display aspect ratio: 16:9
Frame rate: 25.000 fps
Color space: YUV
Chroma subsampling: 4:2:0
Bit depth: 8 bits
Scan type: Progressive
Compression mode: Lossy
Bits/(Pixel*Frame): 0.143
Stream size: 1.20 GiB (88%)
Writing library: DivX 6.8.5 (UTC 2009-08-20)

Audio
ID: 1
Format: MPEG Audio
Format version: Version 1
Format profile: Layer 3
Mode: Joint stereo
Mode extension: MS Stereo
Codec ID: 55
Codec ID/Hint: MP3
Duration: 2h 56mn
Bit rate mode: Constant
Bit rate: 128 Kbps
Channel(s): 2 channels
Sampling rate: 48.0 KHz
Compression mode: Lossy
Stream size: 162 MiB (12%)
Alignment: Aligned on interleaves
Interleave, duration: 40 ms (1.00 video frame)
Interleave, preload duration: 504 ms
Writing library: LAME3.97
Encoding settings: -m j -V 4 -q 2 -lowpass 17 -b 128
Language: Не / ре

























Поделиться:




реклама партнёра


Вернуться к началу
 Профиль Отправить личное сообщение  
 
   Похожие торренты   Автор   Торрент   Размер 
В этой теме нет новых непрочитанных сообщений. Капитан Саблезуб и сокровища Лама Рама / Kaptein Sabeltann og skatten i Lama Rama (Йон Андерсен) [Приключения, 2014] DVDRip, avo

Dracon

8 | 4

1.38 ГБ

В этой теме нет новых непрочитанных сообщений. Сокровища рыцарей: Тайна Милюзины / Schatzritter [Приключения, семейный, 2012] HDRip, Dub [Карусель]

salma3

141 | 7

1.45 ГБ

В этой теме нет новых непрочитанных сообщений. Сокровища государства / Treasure state (Эндрю Уист / Andrew Wiest) [2013г., приключения, WEB-DL 1080p] MVO

Alfredovich

12 | 0

2.13 ГБ

В этой теме нет новых непрочитанных сообщений. Сокровища ацтеков / The Lost Treasure of the Grand Canyon [ужасы, фэнтези, приключения, 2008] BDRip, Mvo

salma3

112 | 35

1.45 ГБ

В этой теме нет новых непрочитанных сообщений. Сокровища "Чёрного Принца" (Документальный, история, приключения, 2006) IPTVRip от Pshichko66

marya111

10 | 0

639.65 МБ

В этой теме нет новых непрочитанных сообщений. Кровавая битва за сокровища / Blooded Treasury Fight [боевые искусства, 1979] DVDRip, Avo

salma3

1 | 1

1.46 ГБ

В этой теме нет новых непрочитанных сообщений. Все сокровища мира [01-08 из 08] [Мелодрама, 2014] HDTVRip 720p

Dracon

29 | 5

12.42 ГБ


Начать новую тему Ответить на тему  [ 1 сообщение ] 




Для Мосгорсуда, Роскомнадзора и рекламодателей:: mosgorsud-torrent[собачка]yandex.ru