Торрент файл
скачать торрент магнет ссылка Добавлен: 22 янв 2012, 13:08
Размер: 1.4 ГБ
Сидеров: 88
Личеров: 13
Автор

СообщениеДобавлено: 22 янв 2012, 13:08 

Не в сети
Супермодератор
Аватара пользователя
Дата регистрации:
11 апр 2010, 18:10
Спасибо: 5801 / 7
Сообщения: 56779
[b]Сокровища капитана Флинта / Die Schatzinsel[/b]

Перевод: Профессиональный (многоголосый, закадровый), cубтитры: отсутствуют

Формат: DVDRip, AVI, DivX, MP3

Страна: Германия

Режиссер: Хайнсйорг Турн

Жанр: приключения

Продолжительность: 03:11:50

Год выпуска: 2007

В ролях: Франсуа Геск, Тобиас Моретти, Кристиан Редль, Александр Йованович, Кристиан Трамиц, Юрген Фогель, Андре Хеннике, Ричи Мюллер

Описание: Англия, XVIII век. Юный Джим Хокинс помогает своей овдовевшей матери управлять маленькой таверной на безлюдном побережье Англии, обслуживая немногочисленных гостей. Его будущее кажется унылым и беспросветным. Но всё меняется в одну ненастную ночь, когда на пороге их дома появляется угрюмый таинственный незнакомец.

Спустя некоторое время, в результате трагических событий, произошедших в таверне, Джим становится обладателем карты острова, затерянного в океане — острова, на котором спрятаны несметные сокровища легендарного пирата Флинта. И вот уже Джим в составе экспедиции на борту быстроходной шхуны «Эспаньола», бороздящей океанские просторы, направляется к берегам этого таинственного острова, навстречу удивительным и опасным приключениям…


________

Видео: 688x384 (1.79:1), 25 fps, DivX Codec 5.x or 6.x ~927 kbps avg, 0.14 bit/pixel
Аудио: 48 kHz, MPEG Layer 3, 2 ch, ~112.00 kbps avg

Доп. информация: Бюджет€7 000 000

General
Complete name: E:\sokrovisha_kapitanta_flinta_[tfile.ru].avi
Format: AVI
Format/Info: Audio Video Interleave
Format profile: OpenDML
File size: 1.40 GiB
Duration: 3h 11mn
Overall bit rate: 1 047 Kbps
Writing application: Lavf51.12.1

Video
ID: 0
Format: MPEG-4 Visual
Format profile: Simple@L1
Format settings, BVOP: No
Format settings, QPel: No
Format settings, GMC: No warppoints
Format settings, Matrix: Default (H.263)
Codec ID: DX50
Codec ID/Hint: DivX 5
Duration: 3h 11mn
Bit rate: 284 Kbps
Width: 688 pixels
Height: 384 pixels
Display aspect ratio: 16:9
Frame rate: 25.000 fps
Color space: YUV
Chroma subsampling: 4:2:0
Bit depth: 8 bits
Scan type: Progressive
Compression mode: Lossy
Bits/(Pixel*Frame): 0.043
Stream size: 389 MiB (27%)
Writing library: Lavc51.40.4

Audio
ID: 1
Format: MPEG Audio
Format version: Version 1
Format profile: Layer 3
Mode: Joint stereo
Mode extension: MS Stereo
Codec ID: 55
Codec ID/Hint: MP3
Duration: 31s 176ms
Bit rate mode: Constant
Bit rate: 112 Kbps
Channel(s): 2 channels
Sampling rate: 48.0 KHz
Compression mode: Lossy
Stream size: 426 KiB (0%)
Alignment: Aligned on interleaves
Interleave, duration: 2734 ms (68.36 video frames)

























Поделиться:




реклама партнёра


Вернуться к началу
 Профиль Отправить личное сообщение  
 
   Похожие торренты   Автор   Торрент   Размер 
В этой теме нет новых непрочитанных сообщений. Капитан Саблезуб и сокровища Лама Рама / Kaptein Sabeltann og skatten i Lama Rama (Йон Андерсен) [Приключения, 2014] DVDRip, avo

Dracon

8 | 4

1.38 ГБ

В этой теме нет новых непрочитанных сообщений. Народ против Ларри Флинта / The People vs. Larry Flynt [драма, биография, 1996] HDRip, 2Mvo+Dvo

salma3

8 | 2

1.64 ГБ

В этой теме нет новых непрочитанных сообщений. Сокровища рыцарей: Тайна Милюзины / Schatzritter [Приключения, семейный, 2012] HDRip, Dub [Карусель]

salma3

142 | 7

1.45 ГБ

В этой теме нет новых непрочитанных сообщений. Сокровища государства / Treasure state (Эндрю Уист / Andrew Wiest) [2013г., приключения, WEB-DL 1080p] MVO

Alfredovich

12 | 0

2.13 ГБ

В этой теме нет новых непрочитанных сообщений. Сокровища ацтеков / The Lost Treasure of the Grand Canyon [ужасы, фэнтези, приключения, 2008] BDRip, Mvo

salma3

112 | 35

1.45 ГБ

В этой теме нет новых непрочитанных сообщений. Сокровища "Чёрного Принца" (Документальный, история, приключения, 2006) IPTVRip от Pshichko66

marya111

4 | 0

639.65 МБ

В этой теме нет новых непрочитанных сообщений. Честь капитана / L'honneur d'un capitaine (Пьер Шёндёрффер / Pierre Schoendoerffer) [1982г., Франция, военный, драма, DVDRip] avo

Alfredovich

2 | 2

2.04 ГБ


Начать новую тему Ответить на тему  [ 1 сообщение ] 




Для Мосгорсуда, Роскомнадзора и рекламодателей:: mosgorsud-torrent[собачка]yandex.ru