Торрент файл
скачать торрент магнет ссылка Добавлен: 22 янв 2012, 13:07
Размер: 2.17 ГБ
Сидеров: 15
Личеров: 12
Автор

СообщениеДобавлено: 22 янв 2012, 13:07 

Не в сети
Супермодератор
Аватара пользователя
Дата регистрации:
11 апр 2010, 18:10
Спасибо: 5799 / 7
Сообщения: 56779
[b]Индиана Джонс и последний крестовый поход / Indiana Jones and the Last Crusade[/b]


Перевод: Профессиональный (многоголосый закадровый)
Субтитры: отсутствуют
Формат: HDRip-AVC, MKV, H.264, AC3

Страна:США

Режиссер: Стивен Спилберг
Жанр: боевик, приключения
Продолжительность: 02:06:48
Год выпуска: 1989

В ролях: Харрисон Форд, Шон Коннери, Денхолм Эллиот, Элисон Дуди, Джон Рис-Дэвис, Джулиан Гловер, Ривер Феникс, Майкл Бирн, Кеворк Маликян, Роберт Эддисон.

Описание: Третья часть невероятных похождений прославленного археолога и искателя приключений Индианы Джонса. На этот раз бесстрашный Индиана разыскивает самую таинственную реликвию в истории человечества — Святой Грааль. В этом археологу помогает его отец — профессор Джонс старший.

Теперь под бдительным оком своего отца и при помощи своих верных талисманов, неизменной шляпы и хлыста, Индиане предстоит совершить много благородных подвигов и потрясающих открытий. В новых странствиях храброму археологу доведется добыть чашу, которую держал в руках Иисус Христос и получить автограф… самого Адольфа Гитлера.




Видео: 1024x432 (2.35:1), 23.976 fps, AVC MPEG-4 High@L4.1 ~1692 kbps avg, 0.160 bit/pixel
Аудио #1: русский48 kHz, AC3 Dolby Digital, 3/2 (L,C,R,l,r) + LFE ch, ~384 kbps avg [Профессиональный (многоголосый закадровый) [Киномания]]
Аудио #2: русский48 kHz, AC3 Dolby Digital, 3/2 (L,C,R,l,r) + LFE ch, ~384 kbps avg [Авторский (А.Михалев)]

Релиз группы

Рип от: __


General
Unique ID: 204555085271706794990306709060913424793 (0x99E3E05BC28F3C74B1182EBEBC1B6999)
Complete name: D:\Мои рипы\Indiana.Jones.and.the.last.crusade.mkv
Format: Matroska
Format version: Version 2
File size: 2.17 GiB
Duration: 2h 6mn
Overall bit rate: 2 451 Kbps
Movie name: Indiana.Jones.And.The.Last.Crusade.S.I.D
Encoded date: UTC 2012-01-03 17:30:52
Writing application: mkvmerge v2.9.8 ('C'est le bon') built on Aug 13 2009 12:49:06
Writing library: libebml v0.7.7 + libmatroska v0.8.1

Video
ID: 1
Format: AVC
Format/Info: Advanced Video Codec
Format profile: High@L4.1
Format settings, CABAC: Yes
Format settings, ReFrames: 8 frames
Codec ID: V_MPEG4/ISO/AVC
Duration: 2h 6mn
Bit rate: 1 692 Kbps
Width: 1 024 pixels
Height: 432 pixels
Display aspect ratio: 2.35:1
Frame rate: 23.976 fps
Color space: YUV
Chroma subsampling: 4:2:0
Bit depth: 8 bits
Scan type: Progressive
Bits/(Pixel*Frame): 0.160
Stream size: 1.45 GiB (67%)
Title: RG Films Tfile
Writing library: x264 core 119 r2106 07efeb4
Encoding settings: cabac=1 / ref=8 / deblock=1:-1:-1 / analyse=0x3:0x111 / me=umh / subme=7 / psy=1 / psy_rd=1.00:0.10 / mixed_ref=1 / me_range=16 / chroma_me=1 / trellis=2 / 8x8dct=1 / cqm=0 / deadzone=21,11 / fast_pskip=0 / chroma_qp_offset=-3 / threads=6 / sliced_threads=0 / nr=0 / decimate=1 / interlaced=0 / bluray_compat=0 / constrained_intra=0 / bframes=3 / b_pyramid=2 / b_adapt=2 / b_bias=0 / direct=1 / weightb=1 / open_gop=0 / weightp=2 / keyint=250 / keyint_min=23 / scenecut=40 / intra_refresh=0 / rc_lookahead=50 / rc=abr / mbtree=1 / bitrate=1692 / ratetol=1.0 / qcomp=0.60 / qpmin=0 / qpmax=69 / qpstep=4 / ip_ratio=1.40 / aq=1:1.00
Language: English
Default: Yes
Forced: No

Audio #1
ID: 2
Format: AC-3
Format/Info: Audio Coding 3
Mode extension: CM (complete main)
Codec ID: A_AC3
Duration: 2h 6mn
Bit rate mode: Constant
Bit rate: 384 Kbps
Channel(s): 6 channels
Channel positions: Front: L C R, Side: L R, LFE
Sampling rate: 48.0 KHz
Bit depth: 16 bits
Compression mode: Lossy
Stream size: 348 MiB (16%)
Title: Kinomania
Language: Russian
Default: Yes
Forced: No

Audio #2
ID: 3
Format: AC-3
Format/Info: Audio Coding 3
Mode extension: CM (complete main)
Codec ID: A_AC3
Duration: 2h 6mn
Bit rate mode: Constant
Bit rate: 384 Kbps
Channel(s): 6 channels
Channel positions: Front: L C R, Side: L R, LFE
Sampling rate: 48.0 KHz
Bit depth: 16 bits
Compression mode: Lossy
Stream size: 348 MiB (16%)
Title: Mixalev
Language: Russian
Default: No
Forced: No








Поделиться:




реклама партнёра


Вернуться к началу
 Профиль Отправить личное сообщение  
 
   Похожие торренты   Автор   Торрент   Размер 
В этой теме нет новых непрочитанных сообщений. Индиана Джонс и Храм Судьбы / Indiana Jones and the Temple of Doom [Боевик, приключения, 1984] BDRip 720p, Mvo+Sub

salma3

8 | 1

12.1 ГБ

В этой теме нет новых непрочитанных сообщений. Крестовый поход / Crusade [S01] [фантастика, боевик, драма, 1999] DVDRip, Mvo

salma3

7 | 3

5.09 ГБ

В этой теме нет новых непрочитанных сообщений. Джессика Джонс / Jessica Jones [01х01-13 из 13] (С.Дж. Кларксон, Дэвид Петрарка, Стивен Серджик) [2015, фантастика, боевик, драма, криминал, WEBRip | BaibaKo]

Dracon

10 | 7

7.61 ГБ

В этой теме нет новых непрочитанных сообщений. Джессика Джонс / Jessica Jones [01х01-13 из 13] (С.Дж. Кларксон, Дэвид Петрарка, Стивен Серджик) [2015, фантастика, боевик, драма, криминал, WEBRip | NewStudio]

Dracon

146 | 205

8.76 ГБ

В этой теме нет новых непрочитанных сообщений. Джессика Джонс / Jessica Jones [01х01-09 из 13] (С.Дж. Кларксон, Дэвид Петрарка, Стивен Серджик) [2015, Фантастика, боевик, драма, криминал, WEBRip | Hamsterstudio]

Dracon

56 | 54

4.07 ГБ

В этой теме нет новых непрочитанных сообщений. Джессика Джонс / Jessica Jones [01х01-06 из 13] (С.Дж. Кларксон, Дэвид Петрарка, Стивен Серджи) [2015, Фантастика, боевик, драма, криминал, WEBRip 720p | NewStudio]

Dracon

195 | 116

7.81 ГБ

В этой теме нет новых непрочитанных сообщений. Джессика Джонс / Jessica Jones [01х01-06 из 13] (С.Дж. Кларксон, Дэвид Петрарка, Стивен Серджик) [2015, фантастика, боевик, драма, криминал, WEBRip 720p | SunshineStudio]

Dracon

7 | 11

3.29 ГБ


Начать новую тему Ответить на тему  [ 1 сообщение ] 




Для Мосгорсуда, Роскомнадзора и рекламодателей:: mosgorsud-torrent[собачка]yandex.ru