Торрент файл
скачать торрент магнет ссылка Добавлен: 20 янв 2012, 23:40
Размер: 1.45 ГБ
Сидеров: 438
Личеров: 16
Автор

СообщениеДобавлено: 20 янв 2012, 23:40 

Не в сети
Супермодератор
Аватара пользователя
Дата регистрации:
11 апр 2010, 18:10
Спасибо: 5801 / 7
Сообщения: 56779
Ирландец / Kill the Irishman

Перевод: Любительский (одноголосый) (Kerob), cубтитры: отсутствуют
Формат: DVDRip-AVC, MKV, H.264, AC3
Страна: США
Режиссер: Джонатан Хенсли
Жанр: боевик, криминал
Продолжительность: 01:42:15
Год выпуска: 2011

В ролях: Рэй Стивенсон, Винсент Д’Онофрио, Вэл Килмер, Линда Карделлини, Кристофер Уокен, Тони Дарроу, Роберт Дави, Фионнула Флэнаган, Боб Гантон, Джейсон Батлер Харнер

Описание: Фильм основан на реальных событиях из жизни гангстера Дэнни Грина, на его взлетах и падениях.



Видео: 720х576@1050х576(16:9),25.000 fps,AVC, х264, High@L4.1 ,~1 578 Kbps,0.152 bit/pixel
Аудио: 48.0 KHz, AC3 Dolby Digital, 3/2 (L,C,R,l,r) + LFE ch,448 Kbps avg

Дополнительная информация: Присутствует ненормативная лексика



General
Unique ID: 254173657899603345063077373582635110798 (0xBF3810DDAA0D98B8B34300297633118E)
Complete name: C:\Documents and Settings\Admin.MICROSOF-42B712\Мои документы\Downloads\Новинки\Irlandetc[nnm-club]2011.mkv
Format: Matroska
File size: 1.45 GiB
Duration: 1h 42mn
Overall bit rate: 2 027 Kbps
Encoded date: UTC 2011-04-30 13:26:05
Writing application: mkvmerge v4.7.0 ('Just Like You Imagined') сборка от Apr 21 2011 01:13:14
Writing library: libebml v1.2.0 + libmatroska v1.1.0

Video
ID: 2
Format: AVC
Format/Info: Advanced Video Codec
Format profile: High@L4.1
Format settings, CABAC: Yes
Format settings, ReFrames: 3 frames
Muxing mode: Header stripping
Codec ID: V_MPEG4/ISO/AVC
Duration: 1h 42mn
Bit rate: 1 578 Kbps
Width: 720 pixels
Height: 576 pixels
Display aspect ratio: 16:9
Original display aspect ratio: 16:9
Frame rate: 25.000 fps
Standard: PAL
Color space: YUV
Chroma subsampling: 4:2:0
Bit depth: 8 bits
Scan type: Progressive
Bits/(Pixel*Frame): 0.152
Stream size: 1.10 GiB (76%)
Writing library: x264 core 114 r1924 08d04a4
Encoding settings: cabac=1 / ref=3 / deblock=1:0:0 / analyse=0x3:0x113 / me=umh / subme=7 / psy=1 / psy_rd=1.00:0.00 / mixed_ref=1 / me_range=16 / chroma_me=1 / trellis=2 / 8x8dct=1 / cqm=0 / deadzone=21,11 / fast_pskip=1 / chroma_qp_offset=-2 / threads=3 / sliced_threads=0 / nr=0 / decimate=1 / interlaced=0 / constrained_intra=0 / bframes=3 / b_pyramid=0 / b_adapt=2 / b_bias=0 / direct=3 / weightb=1 / open_gop=0 / weightp=2 / keyint=250 / keyint_min=25 / scenecut=40 / intra_refresh=0 / rc_lookahead=40 / rc=2pass / mbtree=1 / bitrate=1578 / ratetol=1.0 / qcomp=0.60 / qpmin=10 / qpmax=51 / qpstep=4 / cplxblur=20.0 / qblur=0.5 / vbv_maxrate=50000 / vbv_bufsize=50000 / nal_hrd=none / ip_ratio=1.40 / aq=1:1.00
Language: English

Audio
ID: 1
Format: AC-3
Format/Info: Audio Coding 3
Mode extension: CM (complete main)
Muxing mode: Header stripping
Codec ID: A_AC3
Duration: 1h 42mn
Bit rate mode: Constant
Bit rate: 448 Kbps
Channel(s): 6 channels
Channel positions: Front: L C R, Side: L R, LFE
Sampling rate: 48.0 KHz
Bit depth: 16 bits
Compression mode: Lossy
Stream size: 328 MiB (22%)








Поделиться:




реклама партнёра


Вернуться к началу
 Профиль Отправить личное сообщение  
 
   Похожие торренты   Автор   Торрент   Размер 
В этой теме нет новых непрочитанных сообщений. Во имя мести / На тропе войны / Out for a Kill [Боевик, триллер, криминал, 2003] DVDRip, Mvo

salma3

34 | 14

1.46 ГБ

В этой теме нет новых непрочитанных сообщений. Во имя мести / Out For a Kill [Боевик, триллер, криминал, 2003] HDRip, Mvo

salma3

13 | 4

1.46 ГБ

В этой теме нет новых непрочитанных сообщений. Убить Билла 2 / Kill Bill: Vol. 2 [боевик, триллер, криминал, 2004] BDRemux 1080p, Dub

salma3

6 | 3

26.81 ГБ

В этой теме нет новых непрочитанных сообщений. Убей меня снова / Kill Me Again [Боевик, триллер, драма, криминал, 1989] BDRip, Mvo

salma3

0 | 1

1.45 ГБ

В этой теме нет новых непрочитанных сообщений. Смерти вопреки / Hard to Kill [боевик, триллер, драма, криминал, 1990] HDTVRip, Dvo [НТВ]

salma3

10 | 3

1.46 ГБ

В этой теме нет новых непрочитанных сообщений. Убей меня снова / Kill Me Again [боевик, триллер, драма, криминал, 1989] BDRip 720p, Dvo+Mvo+Sub

salma3

81 | 41

4.93 ГБ

В этой теме нет новых непрочитанных сообщений. 3 дня на убийство / 3 Days to Kill (МакДжи) [2014, Боевик, триллер, драма, криминал, HDRip | Расширенная версия | Лицензия] Dub

Nickolas3435

1726 | 36

1.45 ГБ


Начать новую тему Ответить на тему  [ 1 сообщение ] 




Для Мосгорсуда, Роскомнадзора и рекламодателей:: mosgorsud-torrent[собачка]yandex.ru