Торрент файл
скачать торрент магнет ссылка Добавлен: 20 янв 2012, 23:38
Размер: 2.07 ГБ
Сидеров: 67
Личеров: 9
Автор

СообщениеДобавлено: 20 янв 2012, 23:38 

Не в сети
Супермодератор
Аватара пользователя
Дата регистрации:
11 апр 2010, 18:10
Спасибо: 5802 / 7
Сообщения: 56779
Криминальная фишка от Генри / Henry's Crime


Перевод: Профессиональный (полное дублирование), cубтитры: отсутствуют
Формат: HDRip-AVC, MKV, H.264, AC3
Страна: США
Режиссер: Малькольм Венвилль
Жанр: комедия, криминал
Продолжительность: 01:47:45
Год выпуска: 2010

В ролях: Киану Ривз, Вера Фармига, Джуди Грир, Джеймс Каан, Петер Стормаре, Фишер Стивенс, Билл Дьюк, Карри Грэм, Дэнни Хоч, Дэвид Костабайл

Описание: Встречайте Генри — самого унылого парня в Америке. Он сидит в своей будке у дороги, взимая пошлину с проезжающих. Казалось, в его жизни ничто не может измениться. Но однажды сомнительный приятель попросил Генри подождать его у крыльца главного банка в Буффало… В результате — четыре года тюрьмы по ложному обвинению в ограблении. Но пройдет время, и Генри вернется к тому самому банку, чтобы взять свое...



Видео: 1040 x 432 (2.40.1), 23.976 fps, AVC, х264, High@L4.1, ~ 2377 Kbps Kbps, 0.221 bit/pixel
Аудио: 48 kHz, AC3 Dolby Digital, 3/2 (L,C,R,l,r) + LFE ch, ~384 kbps


Рип: jeenart
General
Unique ID: 181159755526010015889588653631598796262 (0x884A198BBDE9B48AA43B1FA1FED49DE6)
Complete name: F:\Мои релизы\Все релизы 8\henrys_crime_[tfile.ru].mkv
Format: Matroska
File size: 2.07 GiB
Duration: 1h 47mn
Overall bit rate: 2 747 Kbps
Encoded date: UTC 2011-06-11 06:46:23
Writing application: mkvmerge v4.6.0 ('Still Crazy After All These Years') сборка от Apr1 2011 21:01:49
Writing library: libebml v1.2.0 + libmatroska v1.1.0

Video
ID: 1
Format: AVC
Format/Info: Advanced Video Codec
Format profile: High@L4.1
Format settings, CABAC: Yes
Format settings, ReFrames: 3 frames
Codec ID: V_MPEG4/ISO/AVC
Duration: 1h 47mn
Bit rate: 2 377 Kbps
Width: 1 040 pixels
Height: 432 pixels
Display aspect ratio: 2.40:1
Frame rate: 23.976 fps
Color space: YUV
Chroma subsampling: 4:2:0
Bit depth: 8 bits
Scan type: Progressive
Bits/(Pixel*Frame): 0.221
Stream size: 1.74 GiB (84%)
Writing library: x264 core 115 r1937 aa21558
Encoding settings: cabac=1 / ref=3 / deblock=1:-1:-1 / analyse=0x3:0x113 / me=dia / subme=7 / psy=1 / psy_rd=1.00:0.10 / mixed_ref=1 / me_range=16 / chroma_me=1 / trellis=1 / 8x8dct=1 / cqm=0 / deadzone=21,11 / fast_pskip=1 / chroma_qp_offset=-3 / threads=6 / sliced_threads=0 / nr=0 / decimate=1 / interlaced=0 / bluray_compat=0 / constrained_intra=0 / bframes=1 / b_pyramid=0 / b_adapt=0 / b_bias=0 / direct=0 / weightb=1 / open_gop=0 / weightp=0 / keyint=250 / keyint_min=23 / scenecut=40 / intra_refresh=0 / rc_lookahead=40 / rc=2pass / mbtree=1 / bitrate=2377 / ratetol=1.0 / qcomp=0.60 / qpmin=0 / qpmax=69 / qpstep=4 / cplxblur=20.0 / qblur=0.5 / ip_ratio=1.40 / aq=1:1.00

Audio
ID: 2
Format: AC-3
Format/Info: Audio Coding 3
Mode extension: CM (complete main)
Codec ID: A_AC3
Duration: 1h 47mn
Bit rate mode: Constant
Bit rate: 384 Kbps
Channel(s): 6 channels
Channel positions: Front: L C R, Side: L R, LFE
Sampling rate: 48.0 KHz
Bit depth: 16 bits
Compression mode: Lossy
Stream size: 296 MiB (14%)




















Поделиться:




реклама партнёра


Вернуться к началу
 Профиль Отправить личное сообщение  
 
   Похожие торренты   Автор   Торрент   Размер 
В этой теме нет новых непрочитанных сообщений. Генри и Джун / Henry and June [драма, биография, 1990] BDRip 720p, Mvo

salma3

0 | 0

7.11 ГБ

В этой теме нет новых непрочитанных сообщений. Генри и Джун / Henry & June [драма, биография, 1990] BDRemux 1080p, Mvo

salma3

19 | 6

35.07 ГБ

В этой теме нет новых непрочитанных сообщений. Мир Генри Ориента / The World of Henry Orient [Фантастика, ужасы, 1964] HDTV1080i, Dvo [НТВ +]

salma3

12 | 3

4.3 ГБ

В этой теме нет новых непрочитанных сообщений. Укради мою жену /  Life of Crime [комедия, криминал, 2013] HDRip, Dub [iTunes]

Dracon

96 | 3

1.45 ГБ

В этой теме нет новых непрочитанных сообщений. День рождения Генри Гэмбл / Henry Gamble's Birthday Party [драма, 2015] WEB-DLRip, Mvo

salma3

64 | 13

1.46 ГБ

В этой теме нет новых непрочитанных сообщений. Братство / Brotherhood [S01-03] (Эдвард Бьянчи, Генри Бромелл, Ник Гомез) [2006-2008, Драма, WEB-DLRip, HDTVRip | FOX Crime]

Nickolas3435

4 | 106

14.67 ГБ

В этой теме нет новых непрочитанных сообщений. Укради мою жену / Life of Crime [комедия, криминал, 2014] WEB-DLRip, Mvo

salma3

1620 | 43

1.35 ГБ


Начать новую тему Ответить на тему  [ 1 сообщение ] 




Для Мосгорсуда, Роскомнадзора и рекламодателей:: mosgorsud-torrent[собачка]yandex.ru