Торрент файл
скачать торрент магнет ссылка Добавлен: 20 янв 2012, 23:36
Размер: 1.45 ГБ
Сидеров: 27
Личеров: 7
Автор

СообщениеДобавлено: 20 янв 2012, 23:36 

Не в сети
Супермодератор
Аватара пользователя
Дата регистрации:
11 апр 2010, 18:10
Спасибо: 5799 / 7
Сообщения: 56779
Единожды падший / Once Fallen


Перевод: Профессиональный (многоголосый, закадровый), cубтитры: отсутствуют
Формат: HDRip-AVC, MKV, H.264, AC3
Страна: США
Режиссер: Эш Эдамс
Жанр: криминал
Продолжительность: 01:32:45
Год выпуска: 2010

В ролях: Брайан Прэсли, Тараджи П. Хенсон, Эд Харрис, Эми Мэдиган, Питер Уэллер, Эш Эдамс, Чэд Линдберг, Шэрон Глесс, Кигэн Майкл Томас, Джесси Д. Гойнс

Описание: Когда главный герой фильма возвращается домой после пяти лет в тюрьме, он твердо решает уйти со своего прошлого, и начать новую жизнь.



Видео: 1024 x 576 (1.78:1), 23.976 fps, AVC, х264, High@L4.1, ~ 1859 Kbps, 0.131 bit/pixel
Аудио: 48 kHz, AC3 Dolby Digital, 3/2 (L,C,R,l,r) + LFE ch, ~384 kbps


Рип: jeenart

General
Unique ID: 178330306576607969117995536842401469729 (0x86292AF13097CCB18DF7E40E377B5521)
Complete name: F:\Мои релизы\Все релизы 10\once_fallen_[tfile.ru].mkv
Format: Matroska
File size: 1.45 GiB
Duration: 1h 32mn
Overall bit rate: 2 236 Kbps
Encoded date: UTC 2011-07-15 11:41:19
Writing application: mkvmerge v4.6.0 ('Still Crazy After All These Years') сборка от Apr1 2011 21:01:49
Writing library: libebml v1.2.0 + libmatroska v1.1.0

Video
ID: 1
Format: AVC
Format/Info: Advanced Video Codec
Format profile: High@L4.1
Format settings, CABAC: Yes
Format settings, ReFrames: 8 frames
Format settings, GOP: M=1, N=32
Codec ID: V_MPEG4/ISO/AVC
Duration: 1h 32mn
Bit rate: 1 859 Kbps
Width: 1 024 pixels
Height: 576 pixels
Display aspect ratio: 16:9
Frame rate: 23.976 fps
Color space: YUV
Chroma subsampling: 4:2:0
Bit depth: 8 bits
Scan type: Progressive
Bits/(Pixel*Frame): 0.131
Stream size: 1.17 GiB (81%)
Writing library: x264 core 115 r1937 aa21558
Encoding settings: cabac=1 / ref=8 / deblock=1:-1:-1 / analyse=0x3:0x133 / me=umh / subme=9 / psy=1 / psy_rd=1.00:0.10 / mixed_ref=1 / me_range=16 / chroma_me=1 / trellis=2 / 8x8dct=1 / cqm=0 / deadzone=21,11 / fast_pskip=1 / chroma_qp_offset=-3 / threads=6 / sliced_threads=0 / nr=0 / decimate=1 / interlaced=0 / bluray_compat=0 / constrained_intra=0 / bframes=3 / b_pyramid=2 / b_adapt=2 / b_bias=0 / direct=3 / weightb=1 / open_gop=0 / weightp=2 / keyint=250 / keyint_min=23 / scenecut=40 / intra_refresh=0 / rc_lookahead=60 / rc=2pass / mbtree=1 / bitrate=1859 / ratetol=1.0 / qcomp=0.60 / qpmin=0 / qpmax=69 / qpstep=4 / cplxblur=20.0 / qblur=0.5 / ip_ratio=1.40 / aq=1:1.00

Audio
ID: 2
Format: AC-3
Format/Info: Audio Coding 3
Mode extension: CM (complete main)
Codec ID: A_AC3
Duration: 1h 32mn
Bit rate mode: Constant
Bit rate: 384 Kbps
Channel(s): 6 channels
Channel positions: Front: L C R, Side: L R, LFE
Sampling rate: 48.0 KHz
Bit depth: 16 bits
Compression mode: Lossy
Stream size: 255 MiB (17%)

























Поделиться:




реклама партнёра


Вернуться к началу
 Профиль Отправить личное сообщение  
 
   Похожие торренты   Автор   Торрент   Размер 
В этой теме нет новых непрочитанных сообщений. Единожды падший / Once Fallen [Криминал, триллер, 2010] ВDRip 720р, Dvo+Sub [HTB+]

salma3

95 | 25

4.35 ГБ

В этой теме нет новых непрочитанных сообщений. Падший / Fallen [триллер, драма, криминал, 1998] BDRip, Avo [Гаврилов]

salma3

19 | 480

2.01 ГБ

В этой теме нет новых непрочитанных сообщений. Падение Лондона / London Has Fallen [боевик, триллер, криминал, 2016] WEB-DLRip, Dub [iTunes]

salma3

1110 | 283

1.37 ГБ

В этой теме нет новых непрочитанных сообщений. Падение Лондона / London Has Fallen [боевик, триллер, драма, криминал, 2016] Blu-ray 1080p, Dub

salma3

35 | 13

36.1 ГБ

В этой теме нет новых непрочитанных сообщений. Падение Лондона / London Has Fallen [боевик, триллер, драма, криминал, 2016] Blu-ray 1080p, Dub [лицензия]

salma3

15 | 7

17.24 ГБ

В этой теме нет новых непрочитанных сообщений. Падение Лондона / London Has Fallen [боевик, триллер, драма, криминал, 2016] BD Remux 1080p, Dub [iTunes]

salma3

17 | 7

28.15 ГБ

В этой теме нет новых непрочитанных сообщений. Падение Лондона / London Has Fallen [боевик, триллер, драма, криминал, 2016] BDRip 720p, Dub [лицензия]

salma3

207 | 25

4.75 ГБ


Начать новую тему Ответить на тему  [ 1 сообщение ] 




Для Мосгорсуда, Роскомнадзора и рекламодателей:: mosgorsud-torrent[собачка]yandex.ru