Торрент файл
скачать торрент магнет ссылка Добавлен: 20 янв 2012, 23:35
Размер: 1.45 ГБ
Сидеров: 43
Личеров: 12
Автор

СообщениеДобавлено: 20 янв 2012, 23:35 

Не в сети
Супермодератор
Аватара пользователя
Дата регистрации:
11 апр 2010, 18:10
Спасибо: 5801 / 7
Сообщения: 56779
После прочтения cжечь / Burn After Reading


Перевод: Профессиональный (полное дублирование), cубтитры: отсутствуют
Формат: HDRip-AVC, MKV, H.264, AC3
Страна: США, Франция, Великобритания
Режиссер: Итэн Коэн, Джоэл Коэн
Жанр: драма, комедия, криминал
Продолжительность: 01:35:56
Год выпуска: 2008

В ролях: Джордж Клуни, Брэд Питт, Фрэнсис МакДорманд, Джон Малкович, Тильда Суинтон, Ричард Дженкинс, Элизабет Марвел, Дэвид Раш, Дж.К. Симмонс, Олек Крупа

Описание: Оззи, агента ЦРУ, уволили с поста начальника Балканского направления. Пытаясь преодолеть кризис, он берется за мемуары, содержащие в том числе и секретную информацию. И надо же было такому случиться, что диск с этими данными был потерян в раздевалке спортивного клуба.
Находка попадает в руки легкомысленного тренера Чеда и его не менее легкомысленной подруги Линды. Вместе они решают шантажировать бывшего агента, и начинается такая заварушка, в которой не сможет разобраться даже ЦРУ…




Видео: 992 x 536 (1:85:1), 23.976 fps, AVC, х264, High@L4.1, ~ 1785 Kbps, 0.140 bit/pixel
Аудио: 48 kHz, AC3 Dolby Digital, 3/2 (L,C,R,l,r) + LFE ch, ~384 kbps


Рип: jeenart

General
Unique ID: 189071966692372846398210495933085856682 (0x8E3DEFACBFF29DEFB88F02981C7733AA)
Complete name: F:\Мои релизы\Все релизы 10\posle_[tfile.ru].mkv
Format: Matroska
File size: 1.45 GiB
Duration: 1h 35mn
Overall bit rate: 2 170 Kbps
Encoded date: UTC 2011-07-19 21:36:46
Writing application: mkvmerge v4.6.0 ('Still Crazy After All These Years') сборка от Apr1 2011 21:01:49
Writing library: libebml v1.2.0 + libmatroska v1.1.0

Video
ID: 1
Format: AVC
Format/Info: Advanced Video Codec
Format profile: High@L4.1
Format settings, CABAC: Yes
Format settings, ReFrames: 8 frames
Codec ID: V_MPEG4/ISO/AVC
Duration: 1h 35mn
Bit rate: 1 785 Kbps
Width: 992 pixels
Height: 536 pixels
Display aspect ratio: 1.851
Frame rate: 23.976 fps
Color space: YUV
Chroma subsampling: 4:2:0
Bit depth: 8 bits
Scan type: Progressive
Bits/(Pixel*Frame): 0.140
Stream size: 1.17 GiB (80%)
Writing library: x264 core 115 r1937 aa21558
Encoding settings: cabac=1 / ref=8 / deblock=1:-1:-1 / analyse=0x3:0x133 / me=umh / subme=9 / psy=1 / psy_rd=1.00:0.10 / mixed_ref=1 / me_range=16 / chroma_me=1 / trellis=2 / 8x8dct=1 / cqm=0 / deadzone=21,11 / fast_pskip=1 / chroma_qp_offset=-3 / threads=6 / sliced_threads=0 / nr=0 / decimate=1 / interlaced=0 / bluray_compat=0 / constrained_intra=0 / bframes=3 / b_pyramid=2 / b_adapt=2 / b_bias=0 / direct=3 / weightb=1 / open_gop=0 / weightp=2 / keyint=250 / keyint_min=23 / scenecut=40 / intra_refresh=0 / rc_lookahead=60 / rc=2pass / mbtree=1 / bitrate=1785 / ratetol=1.0 / qcomp=0.60 / qpmin=0 / qpmax=69 / qpstep=4 / cplxblur=20.0 / qblur=0.5 / ip_ratio=1.40 / aq=1:1.00

Audio
ID: 2
Format: AC-3
Format/Info: Audio Coding 3
Mode extension: CM (complete main)
Codec ID: A_AC3
Duration: 1h 35mn
Bit rate mode: Constant
Bit rate: 384 Kbps
Channel(s): 6 channels
Channel positions: Front: L C R, Side: L R, LFE
Sampling rate: 48.0 KHz
Bit depth: 16 bits
Compression mode: Lossy
Stream size: 264 MiB (18%)






















Поделиться:




реклама партнёра


Вернуться к началу
 Профиль Отправить личное сообщение  
 
   Похожие торренты   Автор   Торрент   Размер 
В этой теме нет новых непрочитанных сообщений. Железная хватка / True Grit (Итэн Коэн, Джоэл Коэн) [2010, Приключения, драма, вестерн, BDRip | Лицензия] Dub

Nickolas3435

151 | 7

2.18 ГБ

В этой теме нет новых непрочитанных сообщений. Да здравствует Цезарь! / Hail, Caesar! (Итан Коэн, Джоэл Коэн / Ethan Coen, Joel Coen) [2016 г., Великобритания, комедия, детектив, WEBRip] Dub

Alfredovich

0 | 0

741.17 МБ

В этой теме нет новых непрочитанных сообщений. Крепись! / Get Hard (Этан Коэн) [Комедия, 2015] HDRip, Mvo [UNRATED / iTunes]

Dracon

23 | 1

2.05 ГБ

В этой теме нет новых непрочитанных сообщений. Крепись! / Get Hard (Этан Коэн) [Комедия, 2015] HDRip [UNRATED | Яроцкий]

Dracon

3135 | 75

1.45 ГБ

В этой теме нет новых непрочитанных сообщений. Поклонник / The Boy Next Door (Роб Коэн) [Триллер, 2015] HDRip, Dub [Лицензия]

Dracon

530 | 31

1.49 ГБ

В этой теме нет новых непрочитанных сообщений. Коэн и Тейт / Cohen and Tate [Триллер, криминал, 1989] DVDRip, Mvo+Avo

salma3

25 | 3

1.47 ГБ

В этой теме нет новых непрочитанных сообщений. Поклонник / The Boy Next Door (Роб Коэн) [Триллер, 2015] HDRip, Dub [Чистый звук]

Dracon

6 | 0

1.45 ГБ


Начать новую тему Ответить на тему  [ 1 сообщение ] 




Для Мосгорсуда, Роскомнадзора и рекламодателей:: mosgorsud-torrent[собачка]yandex.ru