Торрент файл
скачать торрент магнет ссылка Добавлен: 20 янв 2012, 23:33
Размер: 1.45 ГБ
Сидеров: 20
Личеров: 12
Автор

СообщениеДобавлено: 20 янв 2012, 23:33 

Не в сети
Супермодератор
Аватара пользователя
Дата регистрации:
11 апр 2010, 18:10
Спасибо: 5798 / 7
Сообщения: 56779
Беспредел на окраине / Suburban Mayhem


Перевод: Профессиональный (двухголосый), cубтитры: отсутствуют
Формат: HDRip-AVC, MKV, H.264, AC3
Страна: Австралия
Режиссер: Пол Голдман
Жанр: триллер, драма, криминал
Продолжительность: 01:25:34
Год выпуска: 2006

В ролях: Эмили Барклай, Стив Бастони, Лоуренс Брюлс, Майкл Дорман, Энтони Хэйес, Женевьева Лемон, Роберт Морган, Сьюзэн Прайор, Миа Васиковска, Кристин Армстронг

Описание: История матери одиночки Катрины, которая не устоит не перед чем, даже убийством, чтобы достичь своей цели. Мир Катрины — это криминал и быстрые машины. Когда её отец грозит связаться с социальными службами и забрать её ребёнка, Катрина решает устроить беспредел на окраине, даже не подозревая насколько это шокирует общество и какую зловещую славу она приобретёт в результате.



Видео: 1040 x 584 (1:78:1), 25.000 fps, AVC, х264, High@L4.1, ~ 2238 Kbps, 0.147 bit/pixel
Аудио: 48 kHz, AC3 Dolby Digital, 2/0 (L,R) ch, ~192 kbps


Рип: jeenart

General
Unique ID: 214173907054786036996289444120730725602 (0xA12064E31A75212385BC3B33800AECE2)
Complete name: F:\Мои релизы\Все релизы 10\ubiistvo_v_prigorode_[tfile.ru].mkv
Format: Matroska
File size: 1.45 GiB
Duration: 1h 25mn
Overall bit rate: 2 432 Kbps
Encoded date: UTC 2011-08-29 12:28:17
Writing application: mkvmerge v4.6.0 ('Still Crazy After All These Years') сборка от Apr1 2011 21:01:49
Writing library: libebml v1.2.0 + libmatroska v1.1.0

Video
ID: 1
Format: AVC
Format/Info: Advanced Video Codec
Format profile: High@L4.1
Format settings, CABAC: Yes
Format settings, ReFrames: 4 frames
Codec ID: V_MPEG4/ISO/AVC
Duration: 1h 25mn
Bit rate: 2 238 Kbps
Width: 1 040 pixels
Height: 584 pixels
Display aspect ratio: 16:9
Frame rate: 25.000 fps
Color space: YUV
Chroma subsampling: 4:2:0
Bit depth: 8 bits
Scan type: Progressive
Bits/(Pixel*Frame): 0.147
Stream size: 1.31 GiB (90%)
Writing library: x264 core 115 r1937 aa21558
Encoding settings: cabac=1 / ref=3 / deblock=1:-1:-1 / analyse=0x3:0x113 / me=hex / subme=7 / psy=1 / psy_rd=1.00:0.10 / mixed_ref=1 / me_range=16 / chroma_me=1 / trellis=1 / 8x8dct=1 / cqm=0 / deadzone=21,11 / fast_pskip=1 / chroma_qp_offset=-3 / threads=6 / sliced_threads=0 / nr=0 / decimate=1 / interlaced=0 / bluray_compat=0 / constrained_intra=0 / bframes=3 / b_pyramid=2 / b_adapt=1 / b_bias=0 / direct=1 / weightb=1 / open_gop=0 / weightp=2 / keyint=250 / keyint_min=25 / scenecut=40 / intra_refresh=0 / rc_lookahead=40 / rc=2pass / mbtree=1 / bitrate=2238 / ratetol=1.0 / qcomp=0.60 / qpmin=0 / qpmax=69 / qpstep=4 / cplxblur=20.0 / qblur=0.5 / ip_ratio=1.40 / aq=1:1.00

Audio
ID: 2
Format: AC-3
Format/Info: Audio Coding 3
Mode extension: CM (complete main)
Codec ID: A_AC3
Duration: 1h 25mn
Bit rate mode: Constant
Bit rate: 192 Kbps
Channel(s): 2 channels
Channel positions: Front: L R
Sampling rate: 48.0 KHz
Bit depth: 16 bits
Compression mode: Lossy
Stream size: 118 MiB (8%)




















Поделиться:




реклама партнёра


Вернуться к началу
 Профиль Отправить личное сообщение  
 
   Похожие торренты   Автор   Торрент   Размер 
В этой теме нет новых непрочитанных сообщений. Беспредел [Драма, криминал, 1989] DVDRip-AVC

Dracon

224 | 9

2.09 ГБ

В этой теме нет новых непрочитанных сообщений. Одинокие сердца / Lonely Hearts [триллер, мелодрама, драма, криминал, 2006] HDRip, Dvo

salma3

134 | 9

1.45 ГБ

В этой теме нет новых непрочитанных сообщений. Безграничный Бэтмен: Хаос / Batman Unlimited: Monster Mayhem (Батч Лукич) [Мультфильм, боевик, приключения, 2015] HDRip, Mvo [iTunes]

Dracon

2 | 0

1.37 ГБ

В этой теме нет новых непрочитанных сообщений. Облако / Die Wolke [фантастика, триллер, драма, 2006] HDRip-AVC, Dvo

salma3

38 | 2

1.45 ГБ

В этой теме нет новых непрочитанных сообщений. Контракт / The Contract [Триллер, драма, криминал, 2006] BDRip 1080p, Mvo+Sub

salma3

258 | 14

7.76 ГБ

В этой теме нет новых непрочитанных сообщений. Братство / Tusenbroder / Aterkomsten [триллер, драма, криминал, 2006] DVDRip, Avo

salma3

0 | 2

1.49 ГБ

В этой теме нет новых непрочитанных сообщений. Дочь / Aatma [ужасы, триллер, драма, криминал, 2006] SATRip, Mvo

salma3

4 | 10

1.04 ГБ


Начать новую тему Ответить на тему  [ 1 сообщение ] 




Для Мосгорсуда, Роскомнадзора и рекламодателей:: mosgorsud-torrent[собачка]yandex.ru