Торрент файл
скачать торрент магнет ссылка Добавлен: 20 янв 2012, 23:31
Размер: 2.1 ГБ
Сидеров: 66
Личеров: 10
Автор

СообщениеДобавлено: 20 янв 2012, 23:31 

Не в сети
Супермодератор
Аватара пользователя
Дата регистрации:
11 апр 2010, 18:10
Спасибо: 5799 / 7
Сообщения: 56779
Донни Браско / Donnie Brasco



Перевод: Профессиональный (многоголосый, закадровый),субтитры: отсутствуют
Формат: HDRip-AVC, MKV, H.264, AC3
Страна: США
Жанр: триллер, драма, криминал
Продолжительность: 02:27:00
Режиссер: Майк Ньюэлл / Mike Newell
Год выпуска: 1997

В ролях: Аль Пачино, Джонни Депп, Майкл Мэдсен, Бруно Кирби, Джеймс Руссо, Энн Хеч, Желько Иванек, Джерри Бекер, Роберт Миано, Brian Tarantina, Рокко Систо, Зэк Гренье, Уолт Макферсон, Ronnie Farer, Терри Серпико, Гретчен Мол, Тони Лип, Джордж Анджелика, Вэл Эйвери, Мэдисон Арнольд

Описание:Нью — Йорк, 1978 год. Агент ФБР Джо Пистоне получает новое задание: внедриться в одну из преступных группировок Бруклина с целью получения полноценной информации о деятельности гангстерских банд. Он должен забыть свое настоящее имя, порвать со всеми друзьями и родными, так как теперь он — Донни Браско.

Его лучшим другом становится стареющий мафиози, нуждающийся в молодом напарнике. Он верит в Донни и поручает ему самые ответственные дела. Чувствуя свою безнаказанность, Донни понимает: как ни затянула его новая жизнь, дающая практически неограниченную свободу, вернуться обратно еще не поздно.

Нужно лишь сделать решающий шаг и предать того, кто стал для него настоящим другом…


________

Видео: 1152x 480 (2:40:1), 23,976 кадр/сек, AVC (х264), High@L3.1, ~1660 Kbps, 0.125 bit/pixel
Аудио: 48 kHz, AC3 Dolby Digital, 3/2 (L,C,R,l,r) + LFE ch, ~384 kbps


Автор РИПа:ddimmon22
Общее
Уникальный идентификатор: 224117669858481609956847009367851272458 (0xA89B7E3EBAB80B9DA62A367C5144090A)
Полное имя: K:\РИПЫ\donnie_brasco_[tfile.ru].mkv
Формат: Matroska
Версия формата: Version 2
Размер файла: 2,10 Гбайт
Продолжительность: 2 ч. 27 м.
Общий поток: 2046 Кбит/сек
Дата кодирования: UTC 2011-09-25 17:29:36
Программа кодирования: mkvmerge v4.9.1 ('Ich will') зібрано Aug 10 2011 09:31:20
Библиотека кодирования: libebml v1.2.1 + libmatroska v1.2.0

Видео
Идентификатор: 1
Формат: AVC
Формат/Информация: Advanced Video Codec
Профиль формата: High@L3.1
Параметр CABAC формата: Да
Параметр ReFrames формата: 8 кадров
Идентификатор кодека: V_MPEG4/ISO/AVC
Продолжительность: 2 ч. 27 м.
Битрейт: 1660 Кбит/сек
Ширина: 1152 пикс.
Высота: 480 пикс.
Соотношение сторон: 2,40:1
Частота кадров: 23,976 кадр/сек
Цветовое пространство: YUV
Подвыборка цветности: 4:2:0
Битовая глубина: 8 бит
Тип развёртки: Прогрессивная
Бит/(Пиксели*Кадры): 0.125
Размер потока: 1,67 Гбайт (79%)
Библиотека кодирования: x264 core 116 r2074 2641b9e
Настройки программы: cabac=1 / ref=8 / deblock=1:-1:-1 / analyse=0x3:0x133 / me=umh / subme=7 / psy=1 / psy_rd=1.00:0.10 / mixed_ref=1 / me_range=16 / chroma_me=1 / trellis=2 / 8x8dct=1 / cqm=0 / deadzone=21,11 / fast_pskip=0 / chroma_qp_offset=-3 / threads=3 / sliced_threads=0 / nr=0 / decimate=1 / interlaced=0 / bluray_compat=0 / constrained_intra=0 / bframes=3 / b_pyramid=2 / b_adapt=2 / b_bias=0 / direct=3 / weightb=1 / open_gop=0 / weightp=2 / keyint=250 / keyint_min=23 / scenecut=40 / intra_refresh=0 / rc_lookahead=50 / rc=2pass / mbtree=1 / bitrate=1660 / ratetol=1.0 / qcomp=0.60 / qpmin=0 / qpmax=69 / qpstep=4 / cplxblur=20.0 / qblur=0.5 / ip_ratio=1.40 / aq=1:1.00

Аудио
Идентификатор: 2
Формат: AC-3
Формат/Информация: Audio Coding 3
Расширение режима: CM (complete main)
Идентификатор кодека: A_AC3
Продолжительность: 2 ч. 27 м.
Вид битрейта: Постоянный
Битрейт: 384 Кбит/сек
Каналы: 6 каналов
Расположение каналов: Front: L C R, Side: L R, LFE
Частота: 48,0 КГц
Битовая глубина: 16 бит
Метод сжатия: С потерями
Размер потока: 404 Мбайт (19%)











Поделиться:




реклама партнёра


Вернуться к началу
 Профиль Отправить личное сообщение  
 
   Похожие торренты   Автор   Торрент   Размер 
В этой теме нет новых непрочитанных сообщений. Супер Майк XXL / Magic Mike XXL (Грегори Джейкобс) [комедия, музыка, драма, 2015] HDRip, Dub [iTunes]

Dracon

354 | 20

1.46 ГБ

В этой теме нет новых непрочитанных сообщений. Супер Майк XXL / Magic Mike XXL (Грегори Джейкобс) [комедия, музыка, драма, 2015] HDRip, Dub [iTunes]

Dracon

75 | 3

2.05 ГБ

В этой теме нет новых непрочитанных сообщений. Кутерьма / Topsy-Turvy (Майк Ли / Mike Leigh) [1999г., Великобритания, мюзикл, драма, комедия, биография, музыка, HDRip] DVO

Alfredovich

22 | 3

2.18 ГБ

В этой теме нет новых непрочитанных сообщений. Парни из Трейлерпарка: Не легализуйте это / Trailer Park Boys: Don't Legalize It (Майк Клаттенбёрг / Mike Clattenburg) [2014г., Канада, драма, комедия, криминал, BDRip 720p] dvo

Alfredovich

157 | 9

3.06 ГБ

В этой теме нет новых непрочитанных сообщений. Супер Майк XXL / Magic Mike XXL (Грегори Джейкобс) [комедия, музыка, драма, 2015] BDRip-AVC, Dub+Sub [BD CEE]

Dracon

631 | 54

2.18 ГБ

В этой теме нет новых непрочитанных сообщений. Тайны и ложь / Secrets & Lies (Майк Ли / Mike Leigh) [1996г., Франция, драма, BDRip-AVC] MVO

Alfredovich

11 | 4

3.2 ГБ

В этой теме нет новых непрочитанных сообщений. Супер Майк XXL / Magic Mike XXL (Грегори Джейкобс) [комедия, музыка, драма, 2015] BDRip 720p, Dub+Sub [Blu-ray EUR]

Dracon

148 | 3

5.88 ГБ


Начать новую тему Ответить на тему  [ 1 сообщение ] 




Для Мосгорсуда, Роскомнадзора и рекламодателей:: mosgorsud-torrent[собачка]yandex.ru