Торрент файл
скачать торрент магнет ссылка Добавлен: 20 янв 2012, 23:29
Размер: 1.45 ГБ
Сидеров: 15
Личеров: 11
Автор

СообщениеДобавлено: 20 янв 2012, 23:29 

Не в сети
Супермодератор
Аватара пользователя
Дата регистрации:
11 апр 2010, 18:10
Спасибо: 5963 / 7
Сообщения: 56762
Тайны исповеди / True Confessions


Перевод: Профессиональный (двухголосый), cубтитры: отсутствуют
Формат: HDTVRip-AVC, MKV, H.264, AC3
Страна: США
Режиссер: Улу Гросбард
Жанр: драма, криминал
Продолжительность: 01:43:37
Год выпуска: 1981

В ролях: Роберт Де Ниро, Роберт Дювалл, Чарльз Дёрнинг, Кеннет МакМиллан, Эд Флэндерс, Сирил Кьюcак, Бёрджесс Мередит, Роуз Грегорио, Дэн Хедайя, Гвен Ван Дам

Описание: Два брата ищут таинственного убийцу, чья жестокость не укладывается в рамки обычного понимания — тело жертвы разрезано пополам.
Расследуя это зверское убийство юной проститутки, офицер полиции Том приезжает в город, где живет его брат — священник монсеньер Десмонд Спелласи. В деле оказываются замешанными самые уважаемые люди города, жертвующие огромные деньги на благотворительность и церковь.
Так или иначе, но и священник, и полицейский тоже втягиваются в эту грязную игру, где запах денег отравляет души всех смертных.




Видео: 848 x 456 (1:85:1), 25.000 fps, AVC (х264) High@L4.1, ~ 1815 Kbps, 0.188 bit/pixel
Аудио: 48 kHz, AC3 Dolby Digital, 2/0 (L,R) ch, ~192 kbps avg


Рип: jeenart

General
Unique ID: 175208880135983760885350991204196314369 (0x83D000BC96DD0CD69B388502241C6D01)
Complete name: F:\Мои релизы\Все релизы 10\tainy_ispovedi_[tfile.ru].mkv
Format: Matroska
File size: 1.45 GiB
Duration: 1h 43mn
Overall bit rate: 2 008 Kbps
Encoded date: UTC 2011-10-28 16:51:13
Writing application: mkvmerge v4.6.0 ('Still Crazy After All These Years') сборка от Apr1 2011 21:01:49
Writing library: libebml v1.2.0 + libmatroska v1.1.0

Video
ID: 1
Format: AVC
Format/Info: Advanced Video Codec
Format profile: High@L4.1
Format settings, CABAC: Yes
Format settings, ReFrames: 4 frames
Codec ID: V_MPEG4/ISO/AVC
Duration: 1h 43mn
Bit rate: 1 815 Kbps
Width: 848 pixels
Height: 456 pixels
Display aspect ratio: 1.860
Frame rate: 25.000 fps
Color space: YUV
Chroma subsampling: 4:2:0
Bit depth: 8 bits
Scan type: Progressive
Bits/(Pixel*Frame): 0.188
Stream size: 1.29 GiB (88%)
Writing library: x264 core 115 r1937 aa21558
Encoding settings: cabac=1 / ref=3 / deblock=1:-1:-1 / analyse=0x3:0x113 / me=hex / subme=7 / psy=1 / psy_rd=1.00:0.10 / mixed_ref=1 / me_range=16 / chroma_me=1 / trellis=1 / 8x8dct=1 / cqm=0 / deadzone=21,11 / fast_pskip=1 / chroma_qp_offset=-3 / threads=6 / sliced_threads=0 / nr=0 / decimate=1 / interlaced=0 / bluray_compat=0 / constrained_intra=0 / bframes=3 / b_pyramid=2 / b_adapt=1 / b_bias=0 / direct=3 / weightb=1 / open_gop=0 / weightp=2 / keyint=250 / keyint_min=25 / scenecut=40 / intra_refresh=0 / rc_lookahead=40 / rc=2pass / mbtree=1 / bitrate=1815 / ratetol=1.0 / qcomp=0.60 / qpmin=0 / qpmax=69 / qpstep=4 / cplxblur=20.0 / qblur=0.5 / ip_ratio=1.40 / aq=1:1.00

Audio
ID: 2
Format: AC-3
Format/Info: Audio Coding 3
Mode extension: CM (complete main)
Codec ID: A_AC3
Duration: 1h 43mn
Bit rate mode: Constant
Bit rate: 192 Kbps
Channel(s): 2 channels
Channel positions: Front: L R
Sampling rate: 48.0 KHz
Bit depth: 16 bits
Compression mode: Lossy
Stream size: 142 MiB (10%)














Поделиться:




реклама партнёра


Вернуться к началу
 Профиль Отправить личное сообщение  
 
   Похожие торренты   Автор   Торрент   Размер 
В этой теме нет новых непрочитанных сообщений. В последнюю очередь [Криминал, 1981] HDTVRip-AVC

salma3

34 | 11

1.45 ГБ

В этой теме нет новых непрочитанных сообщений. Признание / Исповеди / Le confessioni (Роберто Андо / Roberto Andò) [2016г., Италия, драма, триллер, DVDRip] Sub

Alfredovich

137 | 44

1.46 ГБ

В этой теме нет новых непрочитанных сообщений. В последнюю очередь [криминал, детектив, 1981] HDTVRip

salma3

96 | 4

1.37 ГБ

В этой теме нет новых непрочитанных сообщений. Ночные ястребы / Nighthawks [Боевик, триллер, криминал, 1981] HDTVRip-AVC, Mvo+3Avo+Sub

salma3

0 | 0

2.22 ГБ

В этой теме нет новых непрочитанных сообщений. Ночные ястребы / Nighthawks [Боевик, триллер, криминал, 1981] HDTVRip 720p, Mvo+3Avo+Sub

salma3

2 | 1

3.82 ГБ

В этой теме нет новых непрочитанных сообщений. Кровные узы / True Blood [боевик, драма, 1989] HDTVRip, Avo

salma3

19 | 3

1.43 ГБ

В этой теме нет новых непрочитанных сообщений. Тайны следствия [15х01-10 из 12] (Ольга Кандидатова) [Детектив, Криминал, 2015] HDTVRip

Dracon

19 | 2

5.34 ГБ


Начать новую тему Ответить на тему  [ 1 сообщение ] 




Для Мосгорсуда, Роскомнадзора и рекламодателей:: mosgorsud-torrent[собачка]yandex.ru