Торрент файл
скачать торрент магнет ссылка Добавлен: 20 янв 2012, 23:29
Размер: 1.85 ГБ
Сидеров: 35
Личеров: 13
Автор

СообщениеДобавлено: 20 янв 2012, 23:29 

Не в сети
Супермодератор
Аватара пользователя
Дата регистрации:
11 апр 2010, 18:10
Спасибо: 5960 / 7
Сообщения: 56765
Криминальная фишка от Генри / Henry's Crime

Слоган: «Ну как не совершить преступление, за которое уже отсидел?»

Перевод: Профессиональный (полное дублирование) [Лицензия]
Субтитры: русские, английские (отключаемые)
Формат: HDRip-AVC, MKV, H264, AC3
Страна: США

Режиссер: Малькольм Венвилль
Жанр: комедия, криминал
Продолжительность: 01:47:45

Год выпуска: 2010
В ролях: Киану Ривз, Вера Фармига, Джуди Грир, Джеймс Каан, Петер Стормаре, Фишер Стивенс, Билл Дьюк, Карри Грэм, Дэнни Хоч, Дэвид Костабайл

Описание: Встречайте Генри — самого унылого парня в Америке. Он сидит в своей будке у дороги, взимая пошлину с проезжающих. Казалось, в его жизни ничто не может измениться. Но однажды сомнительный приятель попросил Генри подождать его у крыльца главного банка в Буффало… В результате — четыре года тюрьмы по ложному обвинению в ограблении. Но пройдет время, и Генри вернется к тому самому банку, чтобы взять свое...



Видео: 1280x528 (2.424), 23.976 fps, AVC (H264), High@L4.1, 1904 kbps, 0.117 bit/pixel
Аудио #1: Русский:48.0 KHz, AC3 Dolby Digital, 6 channels, 384 kbps
Аудио #2: Английский:48.0 KHz, AC3 Dolby Digital, 2 channels, 128 kbps







Формат: Matroska
Размер файла: 1,85 Гбайт
Продолжительность: 1 ч. 47 м.
Общий поток: 2465 Кбит/сек
Название фильма: Криминальная фишка от Генри / Henry's Crime (2010) BDRip-AVC от FireBit
Дата кодирования: UTC 2011-06-11 02:28:34
Программа кодирования: mkvmerge v2.3.0 ('Freak U') built on Sep8 2008 18:32:16
Библиотека кодирования: libebml v0.7.7 + libmatroska v0.8.1

Видео
Идентификатор: 1
Формат: AVC
Формат/Информация: Advanced Video Codec
Профиль формата: High@L4.1
Параметр CABAC формата: Да
Параметр ReFrames формата: 5 кадров
Идентификатор кодека: V_MPEG4/ISO/AVC
Продолжительность: 1 ч. 47 м.
Битрейт: 1904 Кбит/сек
Ширина: 1280 пикс.
Высота: 528 пикс.
Соотношение сторон: 2,40:1
Частота кадров: 23,976 кадр/сек
Цветовое пространство: YUV
Подвыборка цветности: 4:2:0
Битовая глубина: 8 бит
Тип развёртки: Прогрессивная
Бит/(Пиксели*Кадры): 0.117
Размер потока: 1,43 Гбайт (77%)
Язык: English

Аудио #1
Идентификатор: 2
Формат: AC-3
Формат/Информация: Audio Coding 3
Расширение режима: CM (complete main)
Идентификатор кодека: A_AC3
Продолжительность: 1 ч. 47 м.
Вид битрейта: Постоянный
Битрейт: 384 Кбит/сек
Каналы: 6 каналов
Расположение каналов: Front: L C R, Side: L R, LFE
Частота: 48,0 КГц
Битовая глубина: 16 бит
Метод сжатия: С потерями
Задержка видео: 18 мс.
Размер потока: 296 Мбайт (16%)
Язык: Russian

Аудио #2
Идентификатор: 3
Формат: AC-3
Формат/Информация: Audio Coding 3
Расширение режима: CM (complete main)
Идентификатор кодека: A_AC3
Продолжительность: 1 ч. 47 м.
Вид битрейта: Постоянный
Битрейт: 128 Кбит/сек
Каналы: 2 канала
Расположение каналов: Front: L R
Частота: 48,0 КГц
Битовая глубина: 16 бит
Метод сжатия: С потерями
Задержка видео: 18 мс.
Размер потока: 98,6 Мбайт (5%)
Язык: English

Текст #1
Идентификатор: 4
Формат: UTF-8
Идентификатор кодека: S_TEXT/UTF8
Идентификатор кодека/Информация: UTF-8 Plain Text
Язык: English

Текст #2
Идентификатор: 5
Формат: UTF-8
Идентификатор кодека: S_TEXT/UTF8
Идентификатор кодека/Информация: UTF-8 Plain Text
Язык: Russian

Текст #3
Идентификатор: 6
Формат: UTF-8
Идентификатор кодека: S_TEXT/UTF8
Идентификатор кодека/Информация: UTF-8 Plain Text
Язык: English


Поделиться:




реклама партнёра


Вернуться к началу
 Профиль Отправить личное сообщение  
 
   Похожие торренты   Автор   Торрент   Размер 
В этой теме нет новых непрочитанных сообщений. Книга Генри / The Book of Henry [триллер, драма, криминал, 2017] HDRip, Mvo

salma3

0 | 0

1.46 ГБ

В этой теме нет новых непрочитанных сообщений. Книга Генри / The Book of Henry [триллер, драма, криминал, 2017] WEB-DLRip 720p, Mvo

salma3

240 | 28

3.36 ГБ

В этой теме нет новых непрочитанных сообщений. Генри: Портрет серийного убийцы / Henry: Portrait of a Serial Killer [триллер, драма, криминал, биография, 1986] BDRip 720p, Mvo

salma3

38 | 13

5 ГБ

В этой теме нет новых непрочитанных сообщений. Генри и Джун / Henry and June [драма, биография, 1990] BDRip 720p, Mvo

salma3

0 | 0

7.11 ГБ

В этой теме нет новых непрочитанных сообщений. Мир Генри Ориента / The World of Henry Orient [Фантастика, ужасы, 1964] HDTV1080i, Dvo [НТВ +]

salma3

12 | 4

4.3 ГБ

В этой теме нет новых непрочитанных сообщений. Генри и Джун / Henry & June [драма, биография, 1990] BDRemux 1080p, Mvo

salma3

19 | 6

35.07 ГБ

В этой теме нет новых непрочитанных сообщений. День рождения Генри Гэмбл / Henry Gamble's Birthday Party [драма, 2015] WEB-DLRip, Mvo

salma3

64 | 13

1.46 ГБ


Начать новую тему Ответить на тему  [ 1 сообщение ] 




Для Мосгорсуда, Роскомнадзора и рекламодателей:: mosgorsud-torrent[собачка]yandex.ru