Торрент файл
скачать торрент магнет ссылка Добавлен: 20 янв 2012, 23:22
Размер: 1.44 ГБ
Сидеров: 163
Личеров: 7
Автор

СообщениеДобавлено: 20 янв 2012, 23:22 

Не в сети
Супермодератор
Аватара пользователя
Дата регистрации:
11 апр 2010, 18:10
Спасибо: 5801 / 7
Сообщения: 56779
Области тьмы / Limitless

Перевод: Профессиональный (полное дублирование), cубтитры: отсутствуют
Формат: DVDRip-AVC, MKV, H.264, AC3
Страна: США
Режиссер: Нил Бёргер
Жанр: триллер
Продолжительность: 01:40:26
Год выпуска: 2011

В ролях: Брэдли Купер, Роберт Де Ниро, Эбби Корниш, Эндрю Ховард, Анна Фрил, Джонни Витуорт, Томас Арана, Роберт Джон Бёрк, Даррен Голдштейн, Нед Эйзенберг

Описание: Нью-йоркский рекламщик Эдди, желая преодолеть чёрную полосу в жизни, принимает засекреченный препарат под названием NZT. Таблетка выводит мозг парня на работу в нереальной мощности. Этот творческий наркотик меняет всю жизнь Эдди, за короткий срок он зарабатывает кучу денег, но скоро начинает страдать от зловещих побочных эффектов препарата. А когда пытается найти других NZT-гениев, чтобы понять, как можно справиться с этим пристрастием, он узнает страшную правду…



Видео: 720x428@1024x428 (2.35:1), 25 000 fps, AVC х264, High@L4.1~1606 kbps avg, 0.208 bit/pixel
Аудио: 48 kHz, AC3 Dolby Digital, 3/2 (L,C,R,l,r) + LFE ch, ~448.00 kbps avg

[лицензия]
General
Unique ID: 216862888996573081677230518868475262890 (0xA32645EEC34C911E88D1BEF79E9237AA)
Complete name: E:\РЕЛИЗЫ\Все релизы 15\limitless_[tfile.ru].mkv
Format: Matroska
File size: 1.44 GiB
Duration: 1h 40mn
Overall bit rate: 2 055 Kbps
Encoded date: UTC 2011-05-17 01:44:40
Writing application: mkvmerge v4.6.0 ('Still Crazy After All These Years') сборка от Apr1 2011 21:01:49
Writing library: libebml v1.2.0 + libmatroska v1.1.0

Video
ID: 1
Format: AVC
Format/Info: Advanced Video Codec
Format profile: High@L4.1
Format settings, CABAC: Yes
Format settings, ReFrames: 10 frames
Codec ID: V_MPEG4/ISO/AVC
Duration: 1h 40mn
Bit rate: 1 606 Kbps
Width: 720 pixels
Height: 428 pixels
Display aspect ratio: 2.35:1
Frame rate: 25.000 fps
Color space: YUV
Chroma subsampling: 4:2:0
Bit depth: 8 bits
Scan type: Progressive
Bits/(Pixel*Frame): 0.208
Stream size: 1.10 GiB (76%)
Writing library: x264 core 115 r1937 aa21558
Encoding settings: cabac=1 / ref=10 / deblock=1:-2:-1 / analyse=0x3:0x133 / me=umh / subme=10 / psy=1 / psy_rd=1.00:0.10 / mixed_ref=1 / me_range=32 / chroma_me=0 / trellis=2 / 8x8dct=1 / cqm=0 / deadzone=21,11 / fast_pskip=0 / chroma_qp_offset=-3 / threads=12 / sliced_threads=0 / nr=0 / decimate=0 / interlaced=0 / bluray_compat=0 / constrained_intra=0 / bframes=9 / b_pyramid=2 / b_adapt=2 / b_bias=0 / direct=3 / weightb=1 / open_gop=0 / weightp=2 / keyint=250 / keyint_min=25 / scenecut=40 / intra_refresh=0 / rc_lookahead=80 / rc=2pass / mbtree=1 / bitrate=1606 / ratetol=1.0 / qcomp=0.60 / qpmin=0 / qpmax=69 / qpstep=4 / cplxblur=20.0 / qblur=0.5 / ip_ratio=1.40 / aq=1:1.00

Audio
ID: 2
Format: AC-3
Format/Info: Audio Coding 3
Mode extension: CM (complete main)
Codec ID: A_AC3
Duration: 1h 40mn
Bit rate mode: Constant
Bit rate: 448 Kbps
Channel(s): 6 channels
Channel positions: Front: L C R, Side: L R, LFE
Sampling rate: 48.0 KHz
Bit depth: 16 bits
Compression mode: Lossy
Stream size: 322 MiB (22%)

















Поделиться:




реклама партнёра


Вернуться к началу
 Профиль Отправить личное сообщение  
 
   Похожие торренты   Автор   Торрент   Размер 
В этой теме нет новых непрочитанных сообщений. Области тьмы / Limitless / [S01] (Нил Бёргер, Марк Уэбб) [2015, фантастика, триллер, драма, WEB-DLRip | BaibaKo]

Dracon

207 | 563

12.42 ГБ

В этой теме нет новых непрочитанных сообщений. Области Тьмы / Limitless [01х01-11 из 22] (Нил Бёргер, Марк Уэбб) [2015, фантастика, триллер, драма, WEB-DL 720p | LostFilm]

Dracon

8 | 8

13.98 ГБ

В этой теме нет новых непрочитанных сообщений. Области тьмы / Limitless [01x01-21 из 22] (Нил Бёргер, Марк Уэбб) [2015, фантастика, триллер, драма, WEB-DLRip | LostFilm]

Dracon

116 | 215

11.34 ГБ

В этой теме нет новых непрочитанных сообщений. Области тьмы / Limitless [01x01-08 из 22] (Нил Бёргер, Марк Уэбб) [2015, фантастика, триллер, драма, WEB-DLRip | NewStudio]

Nickolas3435

0 | 0

4.3 ГБ

В этой теме нет новых непрочитанных сообщений. Области тьмы / Limitless [01x01-07 из 22] (Нил Бёргер, Марк Уэбб) [2015, фантастика, триллер, драма, WEB-DLRip | LostFilm]

Nickolas3435

257 | 436

3.8 ГБ

В этой теме нет новых непрочитанных сообщений. Области тьмы / Limitless [01x01-07 из 22] (Нил Бёргер, Марк Уэбб) [фантастика, триллер, драма, 2015] WEBRip [BaibaKo]

Dracon

44 | 104

3.98 ГБ

В этой теме нет новых непрочитанных сообщений. Области Тьмы / Limitless [01х01-09 из 22] (Нил Бёргер, Марк Уэбб) [2015, фантастика, триллер, драма, WEB-DL 720p | Jetvis Studio]

Dracon

17 | 124

7.87 ГБ


Начать новую тему Ответить на тему  [ 1 сообщение ] 




Для Мосгорсуда, Роскомнадзора и рекламодателей:: mosgorsud-torrent[собачка]yandex.ru