Торрент файл
скачать торрент магнет ссылка Добавлен: 20 янв 2012, 23:20
Размер: 1.45 ГБ
Сидеров: 125
Личеров: 9
Автор

СообщениеДобавлено: 20 янв 2012, 23:20 

Не в сети
Супермодератор
Аватара пользователя
Дата регистрации:
11 апр 2010, 18:10
Спасибо: 5801 / 7
Сообщения: 56779
Области тьмы / Limitless

Перевод: Профессиональный (полное дублирование), cубтитры: отсутствуют
Формат: HDRip-AVC, MKV, H.264, AC3
Страна: США
Режиссер: Нил Бёргер
Жанр: триллер
Продолжительность: 01:44:44
Год выпуска: 2011

В ролях: Брэдли Купер, Роберт Де Ниро, Эбби Корниш, Эндрю Ховард, Анна Фрил, Джонни Витуорт, Томас Арана, Роберт Джон Бёрк, Даррен Голдштейн, Нед Эйзенберг

Описание: Нью-йоркский рекламщик Эдди, желая преодолеть чёрную полосу в жизни, принимает засекреченный препарат под названием NZT. Таблетка выводит мозг парня на работу в нереальной мощности. Этот творческий наркотик меняет всю жизнь Эдди, за короткий срок он зарабатывает кучу денег, но скоро начинает страдать от зловещих побочных эффектов препарата. А когда пытается найти других NZT-гениев, чтобы понять, как можно справиться с этим пристрастием, он узнает страшную правду…



Видео: 1024 x 428 (2.393), 23.976 fps, AVC х264, High@L3.2 ~1 603 kbps avg, 0.153 bit/pixel
Аудио: 48 kHz, AC3 Dolby Digital, 3/2 (L,C,R,l,r) + LFE ch, ~384 kbps avg

[лицензия]
General
Unique ID: 226689288189298640505548686434123079949 (0xAA8AC4D15BD1DF0B88757DA0153F610D)
Complete name: E:\РЕЛИЗЫ\Все релизы 16\oblast_tmy_[tfile.ru].mkv
Format: Matroska
File size: 1.45 GiB
Duration: 1h 44mn
Overall bit rate: 1 987 Kbps
Movie name: Oblasti tmy / 2011 / Release by Vaippp / OpenSharing Team
Encoded date: UTC 2011-05-19 04:18:42
Writing application: mkvmerge v4.7.0 ('Just Like You Imagined') сборка от Apr 21 2011 01:13:14
Writing library: libebml v1.2.0 + libmatroska v1.1.0

Video
ID: 1
Format: AVC
Format/Info: Advanced Video Codec
Format profile: High@L3.2
Format settings, CABAC: Yes
Format settings, ReFrames: 11 frames
Codec ID: V_MPEG4/ISO/AVC
Duration: 1h 44mn
Bit rate: 1 603 Kbps
Width: 1 024 pixels
Height: 428 pixels
Display aspect ratio: 2.35:1
Frame rate: 23.976 fps
Color space: YUV
Chroma subsampling: 4:2:0
Bit depth: 8 bits
Scan type: Progressive
Bits/(Pixel*Frame): 0.153
Stream size: 1.14 GiB (79%)
Title: BDRip by Vaippp
Writing library: x264 core 114 r1924 08d04a4
Encoding settings: cabac=1 / ref=11 / deblock=1:-2:-1 / analyse=0x3:0x133 / me=umh / subme=9 / psy=1 / psy_rd=1.05:0.13 / mixed_ref=1 / me_range=32 / chroma_me=1 / trellis=2 / 8x8dct=1 / cqm=0 / deadzone=21,11 / fast_pskip=0 / chroma_qp_offset=-3 / threads=12 / sliced_threads=0 / nr=0 / decimate=1 / interlaced=0 / constrained_intra=0 / bframes=10 / b_pyramid=2 / b_adapt=2 / b_bias=0 / direct=3 / weightb=1 / open_gop=0 / weightp=2 / keyint=250 / keyint_min=23 / scenecut=40 / intra_refresh=0 / rc=2pass / mbtree=0 / bitrate=1603 / ratetol=1.0 / qcomp=0.65 / qpmin=0 / qpmax=69 / qpstep=4 / cplxblur=20.0 / qblur=0.5 / ip_ratio=1.40 / pb_ratio=1.30 / aq=1:0.90
Language: English

Audio
ID: 2
Format: AC-3
Format/Info: Audio Coding 3
Mode extension: CM (complete main)
Codec ID: A_AC3
Duration: 1h 44mn
Bit rate mode: Constant
Bit rate: 384 Kbps
Channel(s): 6 channels
Channel positions: Front: L C R, Side: L R, LFE
Sampling rate: 48.0 KHz
Bit depth: 16 bits
Compression mode: Lossy
Stream size: 288 MiB (19%)
Title: DUB
Language: Russian

Menu
00:00:00.000: ru:00:00:00.000
00:06:51.828: ru:00:06:51.828
00:16:24.734: ru:00:16:24.734
00:24:16.205: ru:00:24:16.205
00:31:33.517: ru:00:31:33.517
00:40:19.792: ru:00:40:19.792
00:46:37.169: ru:00:46:37.169
00:54:27.890: ru:00:54:27.890
01:05:40.687: ru:01:05:40.687
01:15:25.312: ru:01:15:25.312
01:20:10.222: ru:01:20:10.222
01:31:46.459: ru:01:31:46.459
















Поделиться:




реклама партнёра


Вернуться к началу
 Профиль Отправить личное сообщение  
 
   Похожие торренты   Автор   Торрент   Размер 
В этой теме нет новых непрочитанных сообщений. Области тьмы / Limitless / [S01] (Нил Бёргер, Марк Уэбб) [2015, фантастика, триллер, драма, WEB-DLRip | BaibaKo]

Dracon

207 | 563

12.42 ГБ

В этой теме нет новых непрочитанных сообщений. Области тьмы / Limitless [01x01-07 из 22] (Нил Бёргер, Марк Уэбб) [2015, фантастика, триллер, драма, WEB-DLRip | LostFilm]

Nickolas3435

257 | 436

3.8 ГБ

В этой теме нет новых непрочитанных сообщений. Области тьмы / Limitless [01x01-21 из 22] (Нил Бёргер, Марк Уэбб) [2015, фантастика, триллер, драма, WEB-DLRip | LostFilm]

Dracon

116 | 215

11.34 ГБ

В этой теме нет новых непрочитанных сообщений. Области Тьмы / Limitless [01х01-11 из 22] (Нил Бёргер, Марк Уэбб) [2015, фантастика, триллер, драма, WEB-DL 720p | LostFilm]

Dracon

8 | 8

13.98 ГБ

В этой теме нет новых непрочитанных сообщений. Области тьмы / Limitless [01x01-07 из 22] (Нил Бёргер, Марк Уэбб) [фантастика, триллер, драма, 2015] WEBRip [BaibaKo]

Dracon

44 | 104

3.98 ГБ

В этой теме нет новых непрочитанных сообщений. Области тьмы / Limitless [01x01-08 из 22] (Нил Бёргер, Марк Уэбб) [2015, фантастика, триллер, драма, WEB-DLRip | NewStudio]

Nickolas3435

0 | 0

4.3 ГБ

В этой теме нет новых непрочитанных сообщений. Области тьмы / Limitless / 1 сезон 1-22 серии из 22 (Нил Бёргер, Марк Уэбб) [2015, фантастика, триллер, драма, WEB-DLRip | NewStudio]

Dracon

29 | 17

11.82 ГБ


Начать новую тему Ответить на тему  [ 1 сообщение ] 




Для Мосгорсуда, Роскомнадзора и рекламодателей:: mosgorsud-torrent[собачка]yandex.ru