Торрент файл
скачать торрент магнет ссылка Добавлен: 20 янв 2012, 23:20
Размер: 2.26 ГБ
Сидеров: 645
Личеров: 20
Автор

СообщениеДобавлено: 20 янв 2012, 23:20 

Не в сети
Супермодератор
Аватара пользователя
Дата регистрации:
11 апр 2010, 18:10
Спасибо: 5799 / 7
Сообщения: 56779
Области тьмы / Limitless

Перевод: Профессиональный (полное дублирование), cубтитры: отсутствуют
Формат: HDRip-AVC, MKV, H.264, AC3
Страна: США
Режиссер: Нил Бёргер
Жанр: фантастика, триллер, детектив
Продолжительность: 01:44:44
Год выпуска: 2011

В ролях: Брэдли Купер, Роберт Де Ниро, Эбби Корниш, Эндрю Ховард, Анна Фрил, Джонни Витуорт, Томас Арана, Роберт Джон Бёрк, Даррен Голдштейн, Нед Эйзенберг

Описание: Нью-йоркский писатель Эдди, желая преодолеть чёрную полосу в жизни, принимает засекреченный препарат под названием NZT. Таблетка выводит мозг парня на работу в нереальной мощности. Этот творческий наркотик меняет всю жизнь Эдди, за короткий срок он зарабатывает кучу денег, но скоро начинает страдать от зловещих побочных эффектов препарата. А когда пытается найти других NZT-гениев, чтобы понять, как можно справиться с этим пристрастием, он узнает страшную правду…

[/field]

Видео: 1280x536,(2,35:1) , 23,976 fps, AVC MPEG4 (x264), High@L4.1 ~2 715 avgkbps , 0.161 bit/pixel
Аудио: 48 kHz, AC3 Dolby Digital, 3/2 (L,C,R,l,r) + LFE ch, ~384 kbps

В основе фильма лежит одноимённый роман Алана Глинна.


General
Complete name : DCOblasti.tmy.2011.D.BDRip.720p.[nolimits-team].mkv
Format : Matroska
File size : 2.26 GiB
Duration : 1h 44mn
Overall bit rate : 3 096 Kbps
Movie name : Rip by victordan 95
Encoded date : UTC 2011-05-20 03:57:18
Writing application : mkvmerge v3.2.0 ('Beginnings') built on Feb 12 2010 16:46:17
Writing library : libebml v0.7.9 + libmatroska v0.8.1

Video
ID : 1
Format : AVC
Format/Info : Advanced Video Codec
Format profile : High@L4.1
Format settings, CABAC : Yes
Format settings, ReFrames : 5 frames
Muxing mode : Container profile=Unknown@4.1
Codec ID : V_MPEG4/ISO/AVC
Duration : 1h 44mn
Bit rate : 2 650 Kbps
Nominal bit rate : 2 715 Kbps
Width : 1 280 pixels
Height : 536 pixels
Display aspect ratio : 2.35:1
Original display aspect ratio : 2.35:1
Frame rate : 23.976 fps
Resolution : 8 bits
Colorimetry : 4:2:0
Scan type : Progressive
Bits/(Pixel*Frame) : 0.161
Stream size : 1.94 GiB (86%)
Writing library : x264 core 115 r1937 aa21558
Encoding settings : cabac=1 / ref=6 / deblock=1:0:0 / analyse=0x3:0x113 / me=umh / subme=8 / psy=1 / psy_rd=1.00:0.00 / mixed_ref=1 / me_range=16 / chroma_me=1 / trellis=1 / 8x8dct=1 / cqm=0 / deadzone=21,11 / fast_pskip=1 / chroma_qp_offset=-2 / threads=3 / sliced_threads=0 / slices=4 / nr=0 / decimate=1 / interlaced=0 / bluray_compat=1 / constrained_intra=0 / bframes=3 / b_pyramid=1 / b_adapt=1 / b_bias=0 / direct=3 / weightb=1 / open_gop=0 / weightp=1 / keyint=24 / keyint_min=1 / scenecut=40 / intra_refresh=0 / rc_lookahead=24 / rc=2pass / mbtree=1 / bitrate=2715 / ratetol=1.0 / qcomp=0.60 / qpmin=0 / qpmax=69 / qpstep=4 / cplxblur=20.0 / qblur=0.5 / vbv_maxrate=15000 / vbv_bufsize=15000 / nal_hrd=vbr / ip_ratio=1.10 / aq=1:1.00
Language : English

Audio
ID : 2
Format : AC-3
Format/Info : Audio Coding 3
Codec ID : A_AC3
Duration : 1h 44mn
Bit rate mode : Constant
Bit rate : 384 Kbps
Channel(s) : 6 channels
Channel positions : Front: L C R, Surround: L R, LFE
Sampling rate : 48.0 KHz
Stream size : 288 MiB (12%)
Language : Russian







Поделиться:




реклама партнёра


Вернуться к началу
 Профиль Отправить личное сообщение  
 
   Похожие торренты   Автор   Торрент   Размер 
В этой теме нет новых непрочитанных сообщений. Области тьмы / Limitless / [S01] (Нил Бёргер, Марк Уэбб) [2015, фантастика, триллер, драма, WEB-DLRip | BaibaKo]

Dracon

207 | 563

12.42 ГБ

В этой теме нет новых непрочитанных сообщений. Области тьмы / Limitless [01x01-07 из 22] (Нил Бёргер, Марк Уэбб) [2015, фантастика, триллер, драма, WEB-DLRip | LostFilm]

Nickolas3435

257 | 436

3.8 ГБ

В этой теме нет новых непрочитанных сообщений. Области Тьмы / Limitless [01х01-11 из 22] (Нил Бёргер, Марк Уэбб) [2015, фантастика, триллер, драма, WEB-DL 720p | LostFilm]

Dracon

8 | 8

13.98 ГБ

В этой теме нет новых непрочитанных сообщений. Области тьмы / Limitless [01x01-21 из 22] (Нил Бёргер, Марк Уэбб) [2015, фантастика, триллер, драма, WEB-DLRip | LostFilm]

Dracon

116 | 215

11.34 ГБ

В этой теме нет новых непрочитанных сообщений. Области тьмы / Limitless [01x01-07 из 22] (Нил Бёргер, Марк Уэбб) [фантастика, триллер, драма, 2015] WEBRip [BaibaKo]

Dracon

44 | 104

3.98 ГБ

В этой теме нет новых непрочитанных сообщений. Области тьмы / Limitless [01x01-08 из 22] (Нил Бёргер, Марк Уэбб) [2015, фантастика, триллер, драма, WEB-DLRip | NewStudio]

Nickolas3435

0 | 0

4.3 ГБ

В этой теме нет новых непрочитанных сообщений. Области тьмы / Limitless / 1 сезон 1-22 серии из 22 (Нил Бёргер, Марк Уэбб) [2015, фантастика, триллер, драма, WEB-DLRip | NewStudio]

Dracon

29 | 17

11.82 ГБ


Начать новую тему Ответить на тему  [ 1 сообщение ] 




Для Мосгорсуда, Роскомнадзора и рекламодателей:: mosgorsud-torrent[собачка]yandex.ru