Торрент файл
скачать торрент магнет ссылка Добавлен: 20 янв 2012, 23:18
Размер: 2.23 ГБ
Сидеров: 262
Личеров: 9
Автор

СообщениеДобавлено: 20 янв 2012, 23:18 

Не в сети
Супермодератор
Аватара пользователя
Дата регистрации:
11 апр 2010, 18:10
Спасибо: 5801 / 7
Сообщения: 56779
Ларго Винч 2: Заговор в Бирме / Largo Winch (Tome 2)



Перевод: Профессиональный (полное дублирование), cубтитры: отсутствуют
Формат: HDRip-AVC, MKV, H.264, AC3
Страна: Германия, Франция, Бельгия
Режиссер: Жером Салль
Жанр: триллер, приключения
Продолжительность: 01:58:17
Год выпуска: 2011

В ролях: Томер Сислей, Шэрон Стоун, Ульрих Тукур, Напакпапха Накпраситте, Оливье Бартелеми, Лоран Терзиефф, Николас Воде, Клеменс Шик, Франсуа Монтагю, Анатоль Таубман

Описание: После убийства приёмного отца Ларго Винч становится президентом группы компаний «W Group». Но роль управленца огромной корпорации не подходит Ларго. Он объявляет о продаже «W Group» и создании гуманитарного фонда, который возглавит старый друг его отца. В день, когда договор подписан, Ларго обвиняют в преступлениях против человечества и финансировании режима бирманского генерала Мина.



Видео: 1280 x 534 (2.349), 24.000 fps, AVC, х264, High@L4.1, ~ 2 328 Kbps, 0.142 bit/pixel
Аудио: 48 kHz, AC3 Dolby Digital, 3/2 (L,C,R,l,r) + LFE ch, ~384 kbps

Релиз

General
Unique ID: 235208432052460207018174828133252231178 (0xB0F37F09FE0738F18116375BFFA6700A)
Complete name: E:\РЕЛИЗЫ\Все релизы 16\largo_winch_2_zagovor_[tfile.ru].mkv
Format: Matroska
File size: 2.23 GiB
Duration: 1h 58mn
Overall bit rate: 2 696 Kbps
Movie name: Rip by Tembr
Encoded date: UTC 2011-04-02 21:07:28
Writing application: mkvmerge v3.2.0 ('Beginnings') built on Feb 12 2010 16:46:17
Writing library: libebml v0.7.9 + libmatroska v0.8.1

Video
ID: 1
Format: AVC
Format/Info: Advanced Video Codec
Format profile: High@L4.1
Format settings, CABAC: Yes
Format settings, ReFrames: 3 frames
Codec ID: V_MPEG4/ISO/AVC
Duration: 1h 58mn
Bit rate mode: Variable
Bit rate: 2 328 Kbps
Maximum bit rate: 15.0 Mbps
Width: 1 280 pixels
Height: 534 pixels
Display aspect ratio: 2.35:1
Original display aspect ratio: 2.35:1
Frame rate: 24.000 fps
Color space: YUV
Chroma subsampling: 4:2:0
Bit depth: 8 bits
Scan type: Progressive
Bits/(Pixel*Frame): 0.142
Stream size: 1.87 GiB (84%)
Title: Ларго Винч 2: Заговор в Бирме.[NoLimits-Team.ru]
Writing library: x264 core 114 r1913 5fd3dce
Encoding settings: cabac=1 / ref=1 / deblock=1:0:0 / analyse=0x3:0x3 / me=dia / subme=1 / psy=1 / psy_rd=0.00:0.00 / mixed_ref=0 / me_range=16 / chroma_me=1 / trellis=0 / 8x8dct=1 / cqm=0 / deadzone=21,11 / fast_pskip=1 / chroma_qp_offset=0 / threads=3 / sliced_threads=0 / slices=4 / nr=0 / decimate=1 / interlaced=0 / constrained_intra=0 / bframes=3 / b_pyramid=1 / b_adapt=1 / b_bias=0 / direct=1 / weightb=1 / open_gop=0 / weightp=1 / keyint=24 / keyint_min=1 / scenecut=40 / intra_refresh=0 / rc_lookahead=0 / rc=abr / mbtree=0 / bitrate=2328 / ratetol=1.0 / qcomp=0.60 / qpmin=0 / qpmax=69 / qpstep=4 / vbv_maxrate=15000 / vbv_bufsize=15000 / nal_hrd=vbr / ip_ratio=1.10 / pb_ratio=1.10 / aq=1:1.00
Language: English

Audio
ID: 2
Format: AC-3
Format/Info: Audio Coding 3
Mode extension: CM (complete main)
Codec ID: A_AC3
Duration: 1h 58mn
Bit rate mode: Constant
Bit rate: 384 Kbps
Channel(s): 6 channels
Channel positions: Front: L C R, Side: L R, LFE
Sampling rate: 48.0 KHz
Bit depth: 16 bits
Compression mode: Lossy
Stream size: 325 MiB (14%)
Title: Дублированное [лицензия]
Language: Russian















Поделиться:




реклама партнёра


Вернуться к началу
 Профиль Отправить личное сообщение  
 
   Похожие торренты   Автор   Торрент   Размер 
В этой теме нет новых непрочитанных сообщений. Ларго Винч 2: Заговор в Бирме 2D, 3D / Largo Winch Tome 2 2D, 3D [Триллер, приключения, 2011] BDRemux 1080р, Dub [3D-Video] [Лицензия]

salma3

32 | 9

18.63 ГБ

В этой теме нет новых непрочитанных сообщений. Ларго Винч: Дилогия / Largo Winch: Dilogy [триллер, приключения, 2008-2011] BDRip 1080p, Dub+Sub

salma3

129 | 24

15.53 ГБ

В этой теме нет новых непрочитанных сообщений. Тeория зaговора / Zulа (Жером Салль) [2013, триллер, драма, криминал, HDRip] DVO

Nickolas3435

343 | 10

1.45 ГБ

В этой теме нет новых непрочитанных сообщений. Семейный заговор / Family Plot [триллер, 1976] Blu-ray 1080p, Dub+Sub

salma3

21 | 45

38.29 ГБ

В этой теме нет новых непрочитанных сообщений. Новое дело детектива Гаррисона / Ирландский заговор / The Shamrock Conspiracy [Триллер, 1995] SATRip, Mvo

salma3

14 | 2

1.36 ГБ

В этой теме нет новых непрочитанных сообщений. Санктум / Sanctum [триллер, драма, приключения, 2011] HDRip, Dub [Лицензия]

salma3

227 | 10

1.45 ГБ

В этой теме нет новых непрочитанных сообщений. Недооформлен Самолет президента / Air Force One (Вольфганг Петерсен) [1997, боевик, триллер, драма, приключения, HDRip-AVC] DUB+MVO+AVO / Фильмы HDRip Данный торрент является блокированным, причина: недооформленный торрент

Kochesov

11 | 1

3.57 ГБ


Начать новую тему Ответить на тему  [ 1 сообщение ] 




Для Мосгорсуда, Роскомнадзора и рекламодателей:: mosgorsud-torrent[собачка]yandex.ru