Торрент файл
скачать торрент магнет ссылка Добавлен: 20 янв 2012, 23:15
Размер: 1.39 ГБ
Сидеров: 109
Личеров: 10
Автор

СообщениеДобавлено: 20 янв 2012, 23:15 

Не в сети
Супермодератор
Аватара пользователя
Дата регистрации:
11 апр 2010, 18:10
Спасибо: 5801 / 7
Сообщения: 56779
Забирая жизни / Taking Lives



Перевод: Профессиональный (полное дублирование), cубтитры: отсутствуют
Формат: HDRip-AVC, MKV, H.264, AC3
Страна: США, Австралия
Режиссер: Ди Джей Карузо
Жанр: триллер, детектив
Продолжительность: 01:49:06
Год выпуска: 2004

В ролях: Анджелина Джоли, Этан Хоук, Кифер Сазерленд, Джина Роулэндс, Оливье Мартинес, Чеки Карио, Жан-Юг Англад, Джастин Чэтвин, Пол Дано, Андре Лакосте

Описание: Твое имя… твои кредитные карточки… твоя жизнь… Он заберет все сразу! Неуловимый серийный убийца в течение двадцати лет подряд присваивал себе личности своих жертв. Но скоро его ждут трудные времена. За расследование очередного убийства берется агент ФБР Иллиана Скотт.
Иллиане предстоит узнать, что движет маньяком, чтобы предугадать дальнейшие шаги изощренного преступника и «перекрыть ему кислород». Но, каким-то непостижимым образом, убийца знает об отважной агентессе гораздо больше, чем та себе представляла…




Видео: 1184 x 488 (2.426), 23.976 fps, AVC, х264, High@L4.1, ~ 1445 Kbps Kbps, 0.104 bit/pixel
Аудио: 48 kHz, AC3 Dolby Digital, 3/2 (L,C,R,l,r) + LFE ch, ~384 kbps


Рип: jeenart
General
Unique ID: 224582648405558093634749638650052584907 (0xA8F50B75171AC9B7A687C82DCA11A5CB)
Complete name: F:\Мои релизы\Все релизы 8\zabiraja_zhizni_[tfile.ru].mkv
Format: Matroska
File size: 1.39 GiB
Duration: 1h 49mn
Overall bit rate: 1 831 Kbps
Encoded date: UTC 2011-06-06 04:43:09
Writing application: mkvmerge v4.6.0 ('Still Crazy After All These Years') сборка от Apr1 2011 21:01:49
Writing library: libebml v1.2.0 + libmatroska v1.1.0

Video
ID: 1
Format: AVC
Format/Info: Advanced Video Codec
Format profile: High@L4.1
Format settings, CABAC: Yes
Format settings, ReFrames: 3 frames
Codec ID: V_MPEG4/ISO/AVC
Duration: 1h 49mn
Bit rate: 1 445 Kbps
Width: 1 184 pixels
Height: 488 pixels
Display aspect ratio: 2.40:1
Frame rate: 23.976 fps
Color space: YUV
Chroma subsampling: 4:2:0
Bit depth: 8 bits
Scan type: Progressive
Bits/(Pixel*Frame): 0.104
Stream size: 1.07 GiB (77%)
Writing library: x264 core 115 r1937 aa21558
Encoding settings: cabac=1 / ref=3 / deblock=1:-1:-1 / analyse=0x3:0x113 / me=dia / subme=7 / psy=1 / psy_rd=1.00:0.10 / mixed_ref=1 / me_range=16 / chroma_me=1 / trellis=1 / 8x8dct=1 / cqm=0 / deadzone=21,11 / fast_pskip=1 / chroma_qp_offset=-3 / threads=6 / sliced_threads=0 / nr=0 / decimate=1 / interlaced=0 / bluray_compat=0 / constrained_intra=0 / bframes=1 / b_pyramid=0 / b_adapt=0 / b_bias=0 / direct=0 / weightb=1 / open_gop=0 / weightp=0 / keyint=250 / keyint_min=23 / scenecut=40 / intra_refresh=0 / rc_lookahead=40 / rc=2pass / mbtree=1 / bitrate=1445 / ratetol=1.0 / qcomp=0.60 / qpmin=0 / qpmax=69 / qpstep=4 / cplxblur=20.0 / qblur=0.5 / ip_ratio=1.40 / aq=1:1.00

Audio
ID: 2
Format: AC-3
Format/Info: Audio Coding 3
Mode extension: CM (complete main)
Codec ID: A_AC3
Duration: 1h 49mn
Bit rate mode: Constant
Bit rate: 384 Kbps
Channel(s): 6 channels
Channel positions: Front: L C R, Side: L R, LFE
Sampling rate: 48.0 KHz
Bit depth: 16 bits
Compression mode: Lossy
Stream size: 300 MiB (21%)
















Поделиться:




реклама партнёра


Вернуться к началу
 Профиль Отправить личное сообщение  
 
   Похожие торренты   Автор   Торрент   Размер 
В этой теме нет новых непрочитанных сообщений. Забирая жизни / Taking Lives [Триллер, Драма, Криминал, 2004] HDRip, Dub

salma3

3 | 2

1.46 ГБ

В этой теме нет новых непрочитанных сообщений. Улов / The Taking [ужасы, триллер, 2013] HDRip, Dvo

salma3

545 | 38

1.36 ГБ

В этой теме нет новых непрочитанных сообщений. Демоны Деборы Логан / The Taking (Адам Робител) [Ужасы, триллер, 2014] HDRip, Dub [Лицензия]

Dracon

268 | 8

1.45 ГБ

В этой теме нет новых непрочитанных сообщений. Прелесть, в доме живущая / I Am the Pretty Thing That Lives in the House [триллер, ужасы, детектив, 2016] WEB-DLRip, Mvo

salma3

162 | 69

1.12 ГБ

В этой теме нет новых непрочитанных сообщений. Taking Dawn - Time To Burn, Taking Dawn [2009,Hard rock, Heavy metal,MP3]

PriZraK

0 | 2

108.56 МБ

В этой теме нет новых непрочитанных сообщений. Самый жестокий год / A Most Violent Year (Джей Си Чендор) [боевик, триллер, драма, криминал, 2014] HDRip, dvo

Dracon

92 | 4

1.35 ГБ

В этой теме нет новых непрочитанных сообщений. Две жизни / Passion of Mind [Триллер, драма, мелодрама, детектив, 2000] DVDRip, Mvo

salma3

56 | 8

1.75 ГБ


Начать новую тему Ответить на тему  [ 1 сообщение ] 




Для Мосгорсуда, Роскомнадзора и рекламодателей:: mosgorsud-torrent[собачка]yandex.ru