Торрент файл
скачать торрент магнет ссылка Добавлен: 20 янв 2012, 23:13
Размер: 1.46 ГБ
Сидеров: 64
Личеров: 6
Автор

СообщениеДобавлено: 20 янв 2012, 23:13 

Не в сети
Супермодератор
Аватара пользователя
Дата регистрации:
11 апр 2010, 18:10
Спасибо: 5802 / 7
Сообщения: 56779
Ларго Винч 2: Заговор в Бирме / Largo Winch (Tome 2)


Перевод: Профессиональный (полное дублирование)
Субтитры:отсутствуют
Формат: HDRip, MKV, H.264, AC3

Страна: Германия, Франция, Бельгия
Режиссер: Жером Салль
Жанр: триллер, приключения

Продолжительность: 01:58:17
Год выпуска: 2011

В ролях: Томер Сислей, Шэрон Стоун, Ульрих Тукур, Напакпапха Накпраситте, Оливье Бартелеми, Лоран Терзиефф, Николас Воде, Клеменс Шик, Франсуа Монтагю, Анатоль Таубман

Описание: После убийства приёмного отца Ларго Винч становится президентом группы компаний «W Group». Но роль управленца огромной корпорации не подходит Ларго. Он объявляет о продаже «W Group» и создании гуманитарного фонда, который возглавит старый друг его отца. В день, когда договор подписан, Ларго обвиняют в преступлениях против человечества и финансировании режима бирманского генерала Мина.





Видео: 704x296 (2.35:1), 24 fps, MPEG-4 AVC (x264) High@L4.1 ~1 574 Kbps avg, 0.315 bit/pixel
Аудио: 48 kHz, AC3, 6 ch, ~192 kbps avg

Рип от:TswetkOFF
Релиз-Группа:




General
Unique ID: 215775435363597088436222536238408945296 (0xA254D6543F04782DB798B4CB6A544E90)
Complete name: D:\Films\largo_winch_2_[tfile.ru].mkv
Format: Matroska
File size: 1.46 GiB
Duration: 1h 58mn
Overall bit rate: 1 767 Kbps
Encoded date: UTC 2011-06-11 22:51:43
Writing application: mkvmerge v4.6.0 ('Still Crazy After All These Years') сборка от Apr1 2011 21:01:49
Writing library: libebml v1.2.0 + libmatroska v1.1.0

Video
ID: 1
Format: AVC
Format/Info: Advanced Video Codec
Format profile: High@L4.1
Format settings, CABAC: Yes
Format settings, ReFrames: 4 frames
Codec ID: V_MPEG4/ISO/AVC
Duration: 1h 58mn
Bit rate: 1 574 Kbps
Width: 704 pixels
Height: 296 pixels
Display aspect ratio: 2.35:1
Frame rate: 24.000 fps
Color space: YUV
Chroma subsampling: 4:2:0
Bit depth: 8 bits
Scan type: Progressive
Bits/(Pixel*Frame): 0.315
Stream size: 1.27 GiB (87%)
Writing library: x264 core 115 r1937 aa21558
Encoding settings: cabac=1 / ref=3 / deblock=1:0:0 / analyse=0x3:0x113 / me=hex / subme=7 / psy=1 / psy_rd=1.00:0.00 / mixed_ref=1 / me_range=16 / chroma_me=1 / trellis=1 / 8x8dct=1 / cqm=0 / deadzone=21,11 / fast_pskip=1 / chroma_qp_offset=-2 / threads=3 / sliced_threads=0 / nr=0 / decimate=1 / interlaced=0 / bluray_compat=0 / constrained_intra=0 / bframes=3 / b_pyramid=2 / b_adapt=1 / b_bias=0 / direct=1 / weightb=1 / open_gop=0 / weightp=2 / keyint=250 / keyint_min=24 / scenecut=40 / intra_refresh=0 / rc_lookahead=40 / rc=2pass / mbtree=1 / bitrate=1574 / ratetol=1.0 / qcomp=0.60 / qpmin=0 / qpmax=69 / qpstep=4 / cplxblur=20.0 / qblur=0.5 / ip_ratio=1.40 / aq=1:1.00

Audio
ID: 2
Format: AC-3
Format/Info: Audio Coding 3
Mode extension: CM (complete main)
Codec ID: A_AC3
Duration: 1h 58mn
Bit rate mode: Constant
Bit rate: 192 Kbps
Channel(s): 6 channels
Channel positions: Front: L C R, Side: L R, LFE
Sampling rate: 48.0 KHz
Bit depth: 16 bits
Compression mode: Lossy
Stream size: 162 MiB (11%)
















Поделиться:




реклама партнёра


Вернуться к началу
 Профиль Отправить личное сообщение  
 
   Похожие торренты   Автор   Торрент   Размер 
В этой теме нет новых непрочитанных сообщений. Ларго Винч 2: Заговор в Бирме 2D, 3D / Largo Winch Tome 2 2D, 3D [Триллер, приключения, 2011] BDRemux 1080р, Dub [3D-Video] [Лицензия]

salma3

32 | 9

18.63 ГБ

В этой теме нет новых непрочитанных сообщений. Ларго Винч: Дилогия / Largo Winch: Dilogy [триллер, приключения, 2008-2011] BDRip 1080p, Dub+Sub

salma3

129 | 24

15.53 ГБ

В этой теме нет новых непрочитанных сообщений. Тeория зaговора / Zulа (Жером Салль) [2013, триллер, драма, криминал, HDRip] DVO

Nickolas3435

343 | 10

1.45 ГБ

В этой теме нет новых непрочитанных сообщений. Семейный заговор / Family Plot [триллер, 1976] Blu-ray 1080p, Dub+Sub

salma3

21 | 45

38.29 ГБ

В этой теме нет новых непрочитанных сообщений. Новое дело детектива Гаррисона / Ирландский заговор / The Shamrock Conspiracy [Триллер, 1995] SATRip, Mvo

salma3

14 | 2

1.36 ГБ

В этой теме нет новых непрочитанных сообщений. Санктум / Sanctum [триллер, драма, приключения, 2011] HDRip, Dub [Лицензия]

salma3

227 | 10

1.45 ГБ

В этой теме нет новых непрочитанных сообщений. Недооформлен Самолет президента / Air Force One (Вольфганг Петерсен) [1997, боевик, триллер, драма, приключения, HDRip-AVC] DUB+MVO+AVO / Фильмы HDRip Данный торрент является блокированным, причина: недооформленный торрент

Kochesov

11 | 1

3.57 ГБ


Начать новую тему Ответить на тему  [ 1 сообщение ] 




Для Мосгорсуда, Роскомнадзора и рекламодателей:: mosgorsud-torrent[собачка]yandex.ru