Торрент файл
скачать торрент магнет ссылка Добавлен: 20 янв 2012, 23:08
Размер: 2.01 ГБ
Сидеров: 15
Личеров: 5
Автор

СообщениеДобавлено: 20 янв 2012, 23:08 

Не в сети
Супермодератор
Аватара пользователя
Дата регистрации:
11 апр 2010, 18:10
Спасибо: 5801 / 7
Сообщения: 56779
Соседка по комнате / The Roommate



Слоган: 2 000 колледжей. 8 миллионов соседей. Какой достанется тебе?

Перевод: Профессиональный (многоголосый, закадровый) [лицензия]
Субтитры: отсутствуют
Формат: HDRip-AVC, MKV, H.264, AC3

Страна: США

Режиссер: Кристиан Е. Кристиансен
Жанр: триллер, драма
Продолжительность: 01:31:16

Год выпуска: 2011

В ролях: Лейтон Мистер, Минка Келли, Кэм Жиганде, Элисон Мичалка, Дэннил Харрис, Фрэнсис Фишер, Томас Арана, Билли Зейн, Нина Добрев, Мэтт Лантер

Описание: Выпускница Сара поступает в колледж. Там она знакомится со своей новой соседкой по комнате — Ребеккой. Девушки становятся настоящими подругами. Однако позже у Сары появляются новые друзья и молодой человек, вследствие чего девушка забывает про Ребекку. Вскоре с друзьями Сары начинают происходить несчастные случаи. После собственного расследования Сара понимает, что все ужасные события, происходящие с ее друзьями — это дело рук Ребекки, которая, как оказалось, страдает психическими расстройствами. Теперь ей нужно спасаться как можно скорее, ведь кто знает, что взбредет в голову ее соседке...



Видео: 1 280 x 534 (2.35:1), 25.000 fps, AVC, х264, High@L4.1,~ 2 745 Kbps, 0.158 bit/pixel

Аудио: 48.0 KHz, AC3 Dolby Digital, 3/2 (L,C,R,l,r) + LFE ch, ~384 kbps

Рип от: sov_follgers

C:\Documents and Settings\Администратор\Мои документы\Sosedka.po.komnate.2011.SF.HDRip.mkv
General
Complete name : C:\Documents and Settings\Администратор\Мои документы\Sosedka.po.komnate.2011.SF.HDRip.mkv
Format : Matroska
File size : 2.01 GiB
Duration : 1h 31mn
Overall bit rate : 3 147 Kbps
Movie name : Sosedka.po.komnate.2011.SF1.HDRip_2.1
Writing application : Lavf52.102.0
Writing library : Lavf52.102.0
Video #1
ID : 1
Format : AVC
Format/Info : Advanced Video Codec
Format profile : High@L4.1
Format settings, CABAC : No
Format settings, ReFrames : 2 frames
Muxing mode : Container profile=Unknown@4.1
Codec ID : V_MPEG4/ISO/AVC
Duration : 1h 31mn
Bit rate : 2 745 Kbps
Width : 1 280 pixels
Height : 534 pixels
Display aspect ratio : 2.35:1
Frame rate mode : Variable
Frame rate : 25.000 fps
Resolution : 8 bits
Colorimetry : 4:2:0
Scan type : Progressive
Bits/(Pixel*Frame) : 0.158
Stream size : 1.72 GiB (86%)
Writing library : x264 core 114 r1900
Encoding settings : cabac=0 / ref=1 / deblock=0:0:0 / analyse=0:0x2 / me=dia / subme=0 / psy=1 / psy_rd=0.00:0.00 / mixed_ref=0 / me_range=16 / chroma_me=1 / trellis=0 / 8x8dct=1 / cqm=0 / deadzone=21,11 / fast_pskip=1 / chroma_qp_offset=0 / threads=1 / sliced_threads=0 / nr=0 / decimate=1 / interlaced=0 / constrained_intra=0 / bframes=7 / b_pyramid=0 / b_adapt=1 / b_bias=0 / direct=1 / weightb=0 / open_gop=0 / weightp=2 / keyint=250 / keyint_min=25 / scenecut=0 / intra_refresh=0 / rc_lookahead=0 / rc=abr / mbtree=0 / bitrate=2745 / ratetol=1.0 / qcomp=0.60 / qpmin=10 / qpmax=51 / qpstep=4 / vbv_maxrate=24000 / vbv_bufsize=24000 / nal_hrd=none / ip_ratio=1.40 / pb_ratio=1.30 / aq=0
Language : English
Audio #2
ID : 2
Format : AC-3
Format/Info : Audio Coding 3
Format_Settings_ModeExtension : CM (complete main)
Codec ID : A_AC3
Duration : 1h 31mn
Bit rate mode : Constant
Bit rate : 384 Kbps
Channel(s) : 6 channels
Channel positions : Front: L C R, Side: L R, LFE
Sampling rate : 48.0 KHz
Stream size : 251 MiB (12%)
Language : Russian












Поделиться:




реклама партнёра


Вернуться к началу
 Профиль Отправить личное сообщение  
 
   Похожие торренты   Автор   Торрент   Размер 
В этой теме нет новых непрочитанных сообщений. Рука Дьявола / Where the Devil Hides (Кристиан Е. Кристиансен) [триллер, 2014] HDRip, dub [Чистый звук]

Dracon

11 | 0

1.36 ГБ

В этой теме нет новых непрочитанных сообщений. Рука Дьявола / Where the Devil Hides (Кристиан Е. Кристиансен) [Триллер, 2014] BDRip 720p, dub [Чистый звук]

Dracon

13 | 3

4.49 ГБ

В этой теме нет новых непрочитанных сообщений. Рука Дьявола / Where the Devil Hides (Кристиан Е. Кристиансен) [триллер, 2014] BDRip 1080p, dub [Чистый звук]

Dracon

15 | 1

6.67 ГБ

В этой теме нет новых непрочитанных сообщений. My Hot Roommate #8 / Моя Горячая Соседка #8 (Reality Kings) [2015 г., Legal Teen, BJ, Gonzo, Hardcore, All Sex, DVDRip, 400p]

friizze

2 | 2

2.8 ГБ

В этой теме нет новых непрочитанных сообщений. Ночная бригада / The Night Crew (Кристиан Сесма) [боевик, триллер, 2015] HDRip, Mvo [iTunes]

Dracon

9099 | 340

1.37 ГБ

В этой теме нет новых непрочитанных сообщений. Требуется сосед / Roommate Wanted [триллер, 2015] DVDRip, Avo

salma3

615 | 60

1.04 ГБ

В этой теме нет новых непрочитанных сообщений. Последнее турне /  Hin und weg (Кристиан Цюберт) [Драма, Комедия, 2014] HDRip, avo

Dracon

1 | 0

1.46 ГБ


Начать новую тему Ответить на тему  [ 1 сообщение ] 




Для Мосгорсуда, Роскомнадзора и рекламодателей:: mosgorsud-torrent[собачка]yandex.ru