Торрент файл
скачать торрент магнет ссылка Добавлен: 20 янв 2012, 23:06
Размер: 2.1 ГБ
Сидеров: 18
Личеров: 8
Автор

СообщениеДобавлено: 20 янв 2012, 23:06 

Не в сети
Супермодератор
Аватара пользователя
Дата регистрации:
11 апр 2010, 18:10
Спасибо: 5802 / 7
Сообщения: 56779
В постели с врагом / Sleeping with the Enemy


Перевод: Профессиональный (полное дублирование), cубтитры: отсутствуют
Формат: HDRip-AVC, MKV, H.264, AC3
Страна: США
Режиссер: Джозеф Рубин
Жанр: триллер, драма
Продолжительность: 01:37:38
Год выпуска: 1991

В ролях: Джулия Робертс, Патрик Бергин, Кевин Андерсон, Тони Абатемарко, Клодетт Невинс, Элизабет Лоуренс, Марита Герати, Нэнси Фиш, Кайл Сикор, Харли Вентон

Описание: Благополучная с виду молодая супружеская пара с первых дней совместной жизни пребывает в атмосфере страха и напряжения… Красавица Лора Берни, доведенная до отчаяния ревностью и агрессивностью обожающего ее мужа Мартина и не знающая, как выпутаться из сетей брака, который стал для нее пыткой и тюрьмой, задумывает рискованную интригу.
Она решает сымитировать собственную гибель. И ей действительно удается начать новую жизнь под другим именем, встретить хорошего человека. Но бывший муж узнает правду и начинает преследование.




Видео: 1152 x 616 (1.87:1), 23.976 fps, AVC, х264, High@L4.1, ~ 2697 Kbps, 0.159 bit/pixel
Аудио: 48 kHz, AC3 Dolby Digital, 3/2 (L,C,R,l,r) + LFE ch, ~384 kbps


Рип: jeenart

General
Unique ID: 189838617022502944921310963107014121281 (0x8ED19674530D9CDB8479939C66981741)
Complete name: F:\Мои релизы\Все релизы 10\v_posteli_s_vragom_[tfile.ru].mkv
Format: Matroska
File size: 2.10 GiB
Duration: 1h 37mn
Overall bit rate: 3 081 Kbps
Encoded date: UTC 2011-07-05 09:03:08
Writing application: mkvmerge v4.6.0 ('Still Crazy After All These Years') сборка от Apr1 2011 21:01:49
Writing library: libebml v1.2.0 + libmatroska v1.1.0

Video
ID: 1
Format: AVC
Format/Info: Advanced Video Codec
Format profile: High@L4.1
Format settings, CABAC: Yes
Format settings, ReFrames: 3 frames
Codec ID: V_MPEG4/ISO/AVC
Duration: 1h 37mn
Bit rate: 2 697 Kbps
Width: 1 152 pixels
Height: 616 pixels
Display aspect ratio: 1.870
Frame rate: 23.976 fps
Color space: YUV
Chroma subsampling: 4:2:0
Bit depth: 8 bits
Scan type: Progressive
Bits/(Pixel*Frame): 0.159
Stream size: 1.80 GiB (86%)
Writing library: x264 core 115 r1937 aa21558
Encoding settings: cabac=1 / ref=3 / deblock=1:-1:-1 / analyse=0x3:0x113 / me=dia / subme=7 / psy=1 / psy_rd=1.00:0.10 / mixed_ref=1 / me_range=16 / chroma_me=1 / trellis=1 / 8x8dct=1 / cqm=0 / deadzone=21,11 / fast_pskip=1 / chroma_qp_offset=-3 / threads=6 / sliced_threads=0 / nr=0 / decimate=1 / interlaced=0 / bluray_compat=0 / constrained_intra=0 / bframes=1 / b_pyramid=0 / b_adapt=0 / b_bias=0 / direct=0 / weightb=1 / open_gop=0 / weightp=0 / keyint=250 / keyint_min=23 / scenecut=40 / intra_refresh=0 / rc_lookahead=40 / rc=2pass / mbtree=1 / bitrate=2697 / ratetol=1.0 / qcomp=0.60 / qpmin=0 / qpmax=69 / qpstep=4 / cplxblur=20.0 / qblur=0.5 / ip_ratio=1.40 / aq=1:1.00

Audio
ID: 2
Format: AC-3
Format/Info: Audio Coding 3
Mode extension: CM (complete main)
Codec ID: A_AC3
Duration: 1h 37mn
Bit rate mode: Constant
Bit rate: 384 Kbps
Channel(s): 6 channels
Channel positions: Front: L C R, Side: L R, LFE
Sampling rate: 48.0 KHz
Bit depth: 16 bits
Compression mode: Lossy
Stream size: 268 MiB (12%)






















Поделиться:




реклама партнёра


Вернуться к началу
 Профиль Отправить личное сообщение  
 
   Похожие торренты   Автор   Торрент   Размер 
В этой теме нет новых непрочитанных сообщений. В постели с врагом / Sleeping with the Enemy [триллер, драма, 1991] Blu-Ray, Dub+Sub

salma3

5 | 10

30.42 ГБ

В этой теме нет новых непрочитанных сообщений. Враг / Enemy [триллер, детектив, 2013] HDRip, dvo

Dracon

502 | 16

1.55 ГБ

В этой теме нет новых непрочитанных сообщений. Обратная тяга / Backdraft [Боевик, триллер, драма, криминал, детектив, 1991] HDRip, Avo

salma3

23 | 1

1.46 ГБ

В этой теме нет новых непрочитанных сообщений. Враг / Enemy [триллер, детектив, 2013] HDRip, Dub [Студия "CineLab SoundMix"]

Dracon

3 | 2

1.37 ГБ

В этой теме нет новых непрочитанных сообщений. Be My Enemy - The Enemy Within [2014, Industrial Metal, MP3]

PriZraK

0 | 1

127.03 МБ

В этой теме нет новых непрочитанных сообщений. 128 ударов сердца в минуту / We Are Your Friends (Макс Джозеф) [Драма, мелодрама, музыка, 2015] HDRip, Dub [iTunes]

Dracon

524 | 10

1.37 ГБ

В этой теме нет новых непрочитанных сообщений. Любовь без обязательств / Sleeping with Other People (Лесли Хэдланд) [комедия, 2015] HDRip, Dub [iTunes]

Dracon

2468 | 120

1.45 ГБ


Начать новую тему Ответить на тему  [ 1 сообщение ] 




Для Мосгорсуда, Роскомнадзора и рекламодателей:: mosgorsud-torrent[собачка]yandex.ru