Торрент файл
скачать торрент магнет ссылка Добавлен: 20 янв 2012, 23:04
Размер: 2.18 ГБ
Сидеров: 31
Личеров: 6
Автор

СообщениеДобавлено: 20 янв 2012, 23:04 

Не в сети
Супермодератор
Аватара пользователя
Дата регистрации:
11 апр 2010, 18:10
Спасибо: 5799 / 7
Сообщения: 56779
Меняющие реальность / The Adjustment Bureau

Перевод: Профессиональный (полное дублирование)[лицензия], cубтитры:русские, английские
Формат: HDRip-AVC, MKV, H.264, AC3
Страна: США
Режиссер: Джордж Нолфи
Жанр: триллер, мелодрама
Продолжительность: 01:45:50
Год выпуска: 2011

В ролях: Мэтт Дэймон, Эмили Блант, Лиза Торсон, Флоренс Кастринер, Филис Макбрид, Натали Картер, Чак Скарборо, Джон Стюарт, Дэрел Ленорманд

Описание: Конгрессмен Дэвид Норрис стремительно поднимается по карьерной лестнице. Где-то по пути он встречает красавицу-балерину Элизу, но не может понять, почему никак не может познакомиться с девушкой поближе — постоянно возникают странные обстоятельства, благодаря которым герои всё время отделены друг от друга.

[/field]

Релиз группа:

Видео: 900x488 (1.85:1),23.976 fps,AVC, х264, High@L4.1, ~2175 kbps avg 0.207 bit/pixel

Аудио#1:Русский: 48 KHz,AC3 Dolby Digital,3/2 (L,C,R,l,r) + LFE ch, ~384 kbps Профессиональный (полное дублирование)

Аудио #2:Английский: 48 kHz, AC3 Dolby Digital, 3/2 (L,C,R,l,r) + LFE ch, ~384 kbps [Оригинал]

General
Unique ID: 192103106591473689294866570854594296615 (0x9085B668FBFAC6508E435126D344BB27)
Complete name: E:\Загрузки\Menyayuschie.Realnost.2011.DUAL.BDRip-AVC.AC3.-HQ-ViDEO.mkv
Format: Matroska
File size: 2.18 GiB
Duration: 1h 45mn
Overall bit rate: 2 943 Kbps
Movie name: Menyayuschie Realnost / 2011 / Release by Vaippp / HQ-ViDEO
Encoded date: UTC 2011-07-06 19:32:41
Writing application: mkvmerge v4.8.0 ('I Got The...') сборка от May 24 2011 03:12:58
Writing library: libebml v1.2.0 + libmatroska v1.1.0

Video
ID: 1
Format: AVC
Format/Info: Advanced Video Codec
Format profile: High@L4.1
Format settings, CABAC: Yes
Format settings, ReFrames: 10 frames
Codec ID: V_MPEG4/ISO/AVC
Duration: 1h 45mn
Bit rate: 2 175 Kbps
Width: 900 pixels
Height: 488 pixels
Display aspect ratio: 16:9
Frame rate: 23.976 fps
Color space: YUV
Chroma subsampling: 4:2:0
Bit depth: 8 bits
Scan type: Progressive
Bits/(Pixel*Frame): 0.207
Stream size: 1.56 GiB (72%)
Title: BDRip 06/07/2011
Writing library: x264 core 115 r1995 c1e60b9
Encoding settings: cabac=1 / ref=10 / deblock=1:-2:-2 / analyse=0x3:0x133 / me=umh / subme=9 / psy=1 / psy_rd=0.95:0.05 / mixed_ref=1 / me_range=32 / chroma_me=1 / trellis=2 / 8x8dct=1 / cqm=0 / deadzone=21,11 / fast_pskip=0 / chroma_qp_offset=-3 / threads=12 / sliced_threads=0 / nr=0 / decimate=1 / interlaced=0 / bluray_compat=0 / constrained_intra=0 / bframes=9 / b_pyramid=2 / b_adapt=2 / b_bias=0 / direct=3 / weightb=1 / open_gop=0 / weightp=2 / keyint=250 / keyint_min=23 / scenecut=40 / intra_refresh=0 / rc_lookahead=40 / rc=2pass / mbtree=0 / bitrate=2175 / ratetol=1.0 / qcomp=0.70 / qpmin=1 / qpmax=65 / qpstep=4 / cplxblur=20.0 / qblur=0.5 / vbv_maxrate=40000 / vbv_bufsize=30000 / nal_hrd=none / ip_ratio=1.40 / pb_ratio=1.30 / aq=2:0.80 / zones=142290,152254,q=35
Language: English

Audio #1
ID: 2
Format: AC-3
Format/Info: Audio Coding 3
Mode extension: CM (complete main)
Codec ID: A_AC3
Duration: 1h 45mn
Bit rate mode: Constant
Bit rate: 384 Kbps
Channel(s): 6 channels
Channel positions: Front: L C R, Side: L R, LFE
Sampling rate: 48.0 KHz
Bit depth: 16 bits
Compression mode: Lossy
Stream size: 291 MiB (13%)
Title: DUB R5
Language: Russian

Audio #2
ID: 3
Format: AC-3
Format/Info: Audio Coding 3
Mode extension: CM (complete main)
Codec ID: A_AC3
Duration: 1h 45mn
Bit rate mode: Constant
Bit rate: 384 Kbps
Channel(s): 6 channels
Channel positions: Front: L C R, Side: L R, LFE
Sampling rate: 48.0 KHz
Bit depth: 16 bits
Compression mode: Lossy
Stream size: 291 MiB (13%)
Title: Original
Language: English

Text #1
ID: 4
Format: UTF-8
Codec ID: S_TEXT/UTF8
Codec ID/Info: UTF-8 Plain Text
Title: voronine
Language: Russian

Text #2
ID: 5
Format: UTF-8
Codec ID: S_TEXT/UTF8
Codec ID/Info: UTF-8 Plain Text
Language: English







Поделиться:




реклама партнёра


Вернуться к началу
 Профиль Отправить личное сообщение  
 
   Похожие торренты   Автор   Торрент   Размер 
В этой теме нет новых непрочитанных сообщений. Дальняя дорога / The Longest Ride (Джордж Тиллман мл.) [Драма, мелодрама, 2015] HDRip, Dub [iTunes]

Dracon

2133 | 45

1.46 ГБ

В этой теме нет новых непрочитанных сообщений. Дальняя дорога / The Longest Ride (Джордж Тиллман мл.) [Драма, мелодрама, 2015] HDRip, Dub [iTunes]

Dracon

171 | 2

2.18 ГБ

В этой теме нет новых непрочитанных сообщений. Бюро убийств / The Assassination Bureau [боевик, триллер, комедия, криминал, приключения, 1969] DVD5, Mvo

salma3

0 | 3

4.36 ГБ

В этой теме нет новых непрочитанных сообщений. Безумный Макс: Дорога ярости / Mad Max: Fury Road (Джордж Миллер) [фантастика, боевик, триллер, приключения, 2015] HDRip, Dub [iTunes]

Dracon

1177 | 27

2.19 ГБ

В этой теме нет новых непрочитанных сообщений. Безумный Макс: Дорога ярости / Mad Max: Fury Road (Джордж Миллер) [фантастика, боевик, триллер, приключения, 2015] HDRip, Dub [iTunes]

Dracon

3233 | 102

1.46 ГБ

В этой теме нет новых непрочитанных сообщений. Запрещённая реальность / The Forbidden Dimensions [Kиберпанк, трэш, 2013] HDRip, avo

Dracon

0 | 2

747.02 МБ

В этой теме нет новых непрочитанных сообщений. Реальность кусается / Reality Bites [Драма, мелодрама, комедия, 1994] BDRip 1080p, Mvo+Sub

salma3

1 | 10

11.79 ГБ


Начать новую тему Ответить на тему  [ 1 сообщение ] 




Для Мосгорсуда, Роскомнадзора и рекламодателей:: mosgorsud-torrent[собачка]yandex.ru