Торрент файл
скачать торрент магнет ссылка Добавлен: 20 янв 2012, 23:02
Размер: 743.84 МБ
Сидеров: 1
Личеров: 9
Автор

СообщениеДобавлено: 20 янв 2012, 23:02 

Не в сети
Супермодератор
Аватара пользователя
Дата регистрации:
11 апр 2010, 18:10
Спасибо: 5801 / 7
Сообщения: 56779
Кабельщик / The Cable Guy


Перевод: Профессиональный (многоголосый, закадровый), cубтитры: отсутствуют
Формат: HDRip, AVI, XviD, MP3
Страна: США
Режиссер: Бен Стиллер
Жанр: триллер, драма, комедия
Продолжительность: 01:35:45
Год выпуска: 1996
В ролях: Джим Керри, Мэттью Бродерик, Лесли Манн, Джек Блэк, Джордж Сигал, Дайан Бэйкер, Бен Стиллер, Эрик Робертс, Джанин Гарофало, Энди Дик

Описание: Чип Дуглас, кабельщик, — парень со странностями. Познакомившись со Стивеном Ковачем, он хочет стать его лучшим другом. Узнав Чипа поближе, Стивен понимает, что эта дружба чревата последствиями — шуточный поединок, например, перерастает в бой боксеров среднего веса.

Решив избавиться от такого «друга», он вдруг осознает, что это будет совсем не просто. «Я могу быть твоим лучшим другом… или самым страшным врагом» — это сказал Чип. И Стивен знает, что тот не шутит.




Видео: 688x288 (2.39:1), 23.976 fps, XviD build 50, 948 kbps avg, 0.20 bit/pixel
Аудио: 48 kHz, MPEG Layer 3, 2 ch, 128.00 kbps avg




Общее
Полное имя: E:\Кабельщик.avi
Формат: AVI
Формат/Информация: Audio Video Interleave
Размер файла: 744 Мбайт
Продолжительность: 1 ч. 35 м.
Общий поток: 1086 Кбит/сек
Программа кодирования: VirtualDubMod 1.5.10.2 (build 2540/release)
Библиотека кодирования: VirtualDubMod build 2540/release

Видео
Идентификатор: 0
Формат: MPEG-4 Visual
Профиль формата: Advanced Simple@L5
Параметр BVOP формата: 1
Параметр QPel формата: Нет
Параметр GMC формата: Без точки перехода
Параметр матрицы формата: Выборочная
Идентификатор кодека: XVID
Идентификатор кодека/Подсказка: XviD
Продолжительность: 1 ч. 35 м.
Битрейт: 949 Кбит/сек
Ширина: 688 пикс.
Высота: 288 пикс.
Соотношение сторон: 2,35:1
Частота кадров: 23,976 кадр/сек
Цветовое пространство: YUV
Подвыборка цветности: 4:2:0
Битовая глубина: 8 бит
Тип развёртки: Прогрессивная
Метод сжатия: С потерями
Бит/(Пиксели*Кадры): 0.200
Размер потока: 650 Мбайт (87%)
Библиотека кодирования: XviD 1.2.1 (UTC 2008-12-04)

Аудио
Идентификатор: 1
Формат: MPEG Audio
Версия формата: Version 1
Профиль формата: Layer 3
Идентификатор кодека: 55
Идентификатор кодека/Подсказка: MP3
Продолжительность: 1 ч. 35 м.
Вид битрейта: Постоянный
Битрейт: 128 Кбит/сек
Канал(ы): 2 канала(ов)
Частота: 48,0 КГц
Метод сжатия: С потерями
Размер потока: 87,7 Мбайт (12%)
Выравнивание: Соединение по промежуткам
Продолжительность промежутка: 42мс. (1,00 видеокадр)
Время предзагрузки промежутка: 504 ms
Библиотека кодирования: LAME3.98r
Настройки программы: -m s -V 4 -q 2 -lowpass 17 -b 128





Поделиться:




реклама партнёра


Вернуться к началу
 Профиль Отправить личное сообщение  
 
   Похожие торренты   Автор   Торрент   Размер 
В этой теме нет новых непрочитанных сообщений. Кабельный Интернет Сонали / Sonali Cable [Драма, комедия, 2014] WEB-DL 720p, Avo

salma3

8 | 5

3.16 ГБ

В этой теме нет новых непрочитанных сообщений. Незабываемое / Unforgettable [фантастика, триллер, драма, 1996] HDRip, Avo

salma3

37 | 1

1.46 ГБ

В этой теме нет новых непрочитанных сообщений. Под прицелом / Silent Trigger [боевик, триллер, драма, 1996] HDRip, Dvo+Avo

salma3

101 | 5

1.46 ГБ

В этой теме нет новых непрочитанных сообщений. Под прицелом / Silent Trigger [Боевик, триллер, драма, 1996] HDRip, Dvo

salma3

49 | 4

1.46 ГБ

В этой теме нет новых непрочитанных сообщений. Под прицелом / Silent Trigger [Боевик, триллер, драма, 1996] HDRip-AVC, Dvo+Avo+Sub

salma3

75 | 8

2.18 ГБ

В этой теме нет новых непрочитанных сообщений. Под прицелом / Silent Trigger [боевик, триллер, драма, 1996] HDRip, Avo

salma3

70 | 3

743.09 МБ

В этой теме нет новых непрочитанных сообщений. Замена / Учитель на замену / The Substitute [боевик, триллер, драма, криминал, 1996] HDRip, Mvo

salma3

65 | 5

1.45 ГБ


Начать новую тему Ответить на тему  [ 1 сообщение ] 




Для Мосгорсуда, Роскомнадзора и рекламодателей:: mosgorsud-torrent[собачка]yandex.ru