Торрент файл
скачать торрент магнет ссылка Добавлен: 20 янв 2012, 23:00
Размер: 2.04 ГБ
Сидеров: 3
Личеров: 6
Автор

СообщениеДобавлено: 20 янв 2012, 23:00 

Не в сети
Супермодератор
Аватара пользователя
Дата регистрации:
11 апр 2010, 18:10
Спасибо: 5962 / 7
Сообщения: 56762
Ночной рейс / Red Eye


Перевод: Профессиональный (полное дублирование), cубтитры: отсутствуют
Формат: HDTVRip-AVC, MKV, H.264, AC3
Страна: США
Режиссер: Уэс Крэйвен
Жанр: триллер
Продолжительность: 01:25:10
Год выпуска: 2005

В ролях: Рэйчел МакАдамс, Киллиан Мерфи, Брайан Кокс, Джейма Мейс, Лаура Джонсон, Макс Каш, Анджела Пейтон, Сьюзи Плаксон, Джек Скалия, Терри Пресс, Роберт Пайн, Карл Джиллиард, Мэри Кэтлин Гордон, Лорен Лестер, Филип Павел, Эмбер Мид, Дей Янг, Бриттани Оукс, Тина Андерсон, Джанин Джексон, Джои Нэйдер

Описание: Два незнакомых человека. Случайная встреча в аэропорту. Взаимная симпатия… А в итоге сегодня рейс N1019 прибудет вовремя, но, возможно, без одного пассажира. Лиза Ризерт всегда боялась летать, но страх перед авиаполетом — это ничто по сравнению с тем, что ей предстоит пережить.
Её симпатичный сосед оказывается хладнокровным злодеем, который намерен использовать девушку для убийства известного бизнесмена. Ей угрожают смертью отца, она в самолёте и у неё нет выхода…




Видео: 1024 x 434 (2.35:1), 23.976 fps, AVC, х264, High@L4.1, ~ 2599 Kbps, 0.244 bit/pixel
Аудио #1: русский 48 kHz, AC3 Dolby Digital, 3/2 (L,C,R,l,r) + LFE ch, ~384 kbps [Профессиональный (полное дублирование)]
Аудио #2: английский 48 kHz, AC3 Dolby Digital, 3/2 (L,C,R,l,r) + LFE ch, ~448 kbps [Оригинал]

Релиз от:


General
Unique ID: 231652260718205767536292324131977758738 (0xAE469A4162F31E119DA08329E58F0812)
Complete name: F:\Мои релизы\Все релизы 10\nochnoi_rejs_[tfile.ru].mkv
Format: Matroska
File size: 2.04 GiB
Duration: 1h 25mn
Overall bit rate: 3 432 Kbps
Movie name: NovaLan (Vladislav71)
Encoded date: UTC 2011-07-13 15:26:09
Writing application: mkvmerge v4.0.0 ('The Stars were mine') сборка от Jun6 2010 16:18:42
Writing library: libebml v1.0.0 + libmatroska v1.0.0

Video
ID: 1
Format: AVC
Format/Info: Advanced Video Codec
Format profile: High@L4.1
Format settings, CABAC: Yes
Format settings, ReFrames: 8 frames
Codec ID: V_MPEG4/ISO/AVC
Duration: 1h 25mn
Bit rate: 2 599 Kbps
Width: 1 024 pixels
Height: 434 pixels
Display aspect ratio: 2.35:1
Frame rate: 23.976 fps
Color space: YUV
Chroma subsampling: 4:2:0
Bit depth: 8 bits
Scan type: Progressive
Bits/(Pixel*Frame): 0.244
Stream size: 1.51 GiB (74%)
Writing library: x264 core 114 r1924 08d04a4
Encoding settings: cabac=1 / ref=8 / deblock=1:-2:-2 / analyse=0x3:0x133 / me=umh / subme=10 / psy=1 / psy_rd=1.00:0.00 / mixed_ref=1 / me_range=48 / chroma_me=1 / trellis=2 / 8x8dct=1 / cqm=0 / deadzone=21,11 / fast_pskip=0 / chroma_qp_offset=-2 / threads=3 / sliced_threads=0 / nr=0 / decimate=1 / interlaced=0 / constrained_intra=0 / bframes=8 / b_pyramid=2 / b_adapt=2 / b_bias=0 / direct=3 / weightb=1 / open_gop=0 / weightp=2 / keyint=250 / keyint_min=23 / scenecut=40 / intra_refresh=0 / rc=2pass / mbtree=0 / bitrate=2599 / ratetol=1.0 / qcomp=0.60 / qpmin=10 / qpmax=51 / qpstep=4 / cplxblur=20.0 / qblur=0.5 / ip_ratio=1.40 / pb_ratio=1.30 / aq=2:1.00
Language: English

Audio #1
ID: 2
Format: AC-3
Format/Info: Audio Coding 3
Mode extension: CM (complete main)
Codec ID: A_AC3
Duration: 1h 25mn
Bit rate mode: Constant
Bit rate: 384 Kbps
Channel(s): 6 channels
Channel positions: Front: L C R, Side: L R, LFE
Sampling rate: 48.0 KHz
Bit depth: 16 bits
Compression mode: Lossy
Stream size: 234 MiB (11%)
Language: Russian

Audio #2
ID: 3
Format: AC-3
Format/Info: Audio Coding 3
Mode extension: CM (complete main)
Codec ID: A_AC3
Duration: 1h 25mn
Bit rate mode: Constant
Bit rate: 448 Kbps
Channel(s): 6 channels
Channel positions: Front: L C R, Side: L R, LFE
Sampling rate: 48.0 KHz
Bit depth: 16 bits
Compression mode: Lossy
Stream size: 273 MiB (13%)
Language: English

























Поделиться:




реклама партнёра


Вернуться к началу
 Профиль Отправить личное сообщение  
 
   Похожие торренты   Автор   Торрент   Размер 
В этой теме нет новых непрочитанных сообщений. Ночной рейс / Red Eye [триллер, боевик, 2005] WEB-DL 1080p, Dub

salma3

44 | 14

6.72 ГБ

В этой теме нет новых непрочитанных сообщений. Новогодний рейс [01-04 из 04] (Нана Джорджадзе) [Мелодрама, 2014] HDTVRip

Dracon

290 | 26

2.82 ГБ

В этой теме нет новых непрочитанных сообщений. Последний рейс / Last Flight (Винсент Чжоу) [триллер, 2014] WEBRip, dub [чистый звук]

Dracon

1720 | 53

1.37 ГБ

В этой теме нет новых непрочитанных сообщений. Потерянный рейс / United 93 (Пол Гринграсс) [2006, боевик, триллер, драма, BDRip 720p] Dub

Nickolas3435

124 | 9

5.39 ГБ

В этой теме нет новых непрочитанных сообщений. Воздушное столкновение / Опасный рейс / Air Collision [Боевик, триллер, приключения, 2012] ВDRip 720р, Mvo+Sub

salma3

43 | 47

4.66 ГБ

В этой теме нет новых непрочитанных сообщений. Последний рейс / Last Flight (Винсент Чжоу) [триллер, 2014] WEBRip 1080p, dub [чистый звук]

Dracon

80 | 5

2.61 ГБ

В этой теме нет новых непрочитанных сообщений. Последний рейс / Last Flight (Винсент Чжоу) [триллер, 2014] WEBRip 720p, dub [чистый звук]

Dracon

104 | 7

2.5 ГБ


Начать новую тему Ответить на тему  [ 1 сообщение ] 




Для Мосгорсуда, Роскомнадзора и рекламодателей:: mosgorsud-torrent[собачка]yandex.ru