Торрент файл
скачать торрент магнет ссылка Добавлен: 20 янв 2012, 22:58
Размер: 2.28 ГБ
Сидеров: 44
Личеров: 7
Автор

СообщениеДобавлено: 20 янв 2012, 22:58 

Не в сети
Супермодератор
Аватара пользователя
Дата регистрации:
11 апр 2010, 18:10
Спасибо: 5802 / 7
Сообщения: 56779
Неизвестный / Unknown

Перевод: Профессиональный (полное дублирование), cубтитры: отсутствуют
Формат: HDRip-AVC, MKV, H.264, AC3
Страна: США, Германия, Канада, Франция, Япония, Великобритания
Режиссер: Жауме Серра
Жанр: триллер,детектив,драма
Продолжительность: 01:53:11
Год выпуска: 2011

В ролях: Лиам Нисон, Дайан Крюгер, Дженьюэри Джонс, Эйдан Куинн, Бруно Ганц, Фрэнк Ланджелла, Себастьян Кох, Оливье Шнайдер, Стипе Эрчег, Райнер Бок

Описание: В этом фильме рассказывается о мужчине, который после пробуждения от комы обнаруживает, что его личность присвоена другим, и понимает, что никто, даже собственная жена, не верит ему. И тогда при помощи незнакомой молодой женщины-таксистки герой стремится доказать, кто он такой.

[/field]

Видео: 1280x528 (2.40:1), 23.976 fps, AVC, х264, High@L4.1, ~2 512Kbps 0.155 bit/pixel
Аудио: 48 kHz, AC3 Dolby Digital, 3/2 (L,C,R,l,r) + LFE ch, ~384 kbps

Релиз группа:

General
Unique ID: 171146862018122393592407625216542182333 (0x80C1AFC7F526FCDF8CA364DDEE5D0BBD)
Complete name: E:\Загрузки\Unknown.2011.BDRip.720p.mkv
Format: Matroska
File size: 2.28 GiB
Duration: 1h 53mn
Overall bit rate: 2 886 Kbps
Movie name: Rip by herrower (NOLIMITS-TEAM.RU)
Encoded date: UTC 2011-06-03 18:19:03
Writing application: mkvmerge v3.0.0 ('Hang up your Hang-Ups') built on Dec 12 2009 15:20:35
Writing library: libebml v0.7.9 + libmatroska v0.8.1

Video
ID: 2
Format: AVC
Format/Info: Advanced Video Codec
Format profile: High@L4.1
Format settings, CABAC: Yes
Format settings, ReFrames: 3 frames
Format settings, GOP: M=4, N=16
Codec ID: V_MPEG4/ISO/AVC
Duration: 1h 53mn
Bit rate mode: Variable
Bit rate: 2 512 Kbps
Maximum bit rate: 15.0 Mbps
Width: 1 280 pixels
Height: 528 pixels
Display aspect ratio: 2.40:1
Frame rate: 23.976 fps
Color space: YUV
Chroma subsampling: 4:2:0
Bit depth: 8 bits
Scan type: Progressive
Bits/(Pixel*Frame): 0.155
Stream size: 1.93 GiB (85%)
Writing library: x264 core 115 r1937 aa21558
Encoding settings: cabac=1 / ref=1 / deblock=1:0:0 / analyse=0x3:0x3 / me=dia / subme=1 / psy=1 / psy_rd=0.00:0.00 / mixed_ref=0 / me_range=16 / chroma_me=1 / trellis=0 / 8x8dct=1 / cqm=0 / deadzone=21,11 / fast_pskip=1 / chroma_qp_offset=0 / threads=3 / sliced_threads=0 / slices=4 / nr=0 / decimate=1 / interlaced=0 / bluray_compat=1 / constrained_intra=0 / bframes=3 / b_pyramid=1 / b_adapt=1 / b_bias=0 / direct=1 / weightb=1 / open_gop=0 / weightp=1 / keyint=24 / keyint_min=1 / scenecut=40 / intra_refresh=0 / rc_lookahead=0 / rc=abr / mbtree=0 / bitrate=2512 / ratetol=1.0 / qcomp=0.60 / qpmin=0 / qpmax=69 / qpstep=4 / vbv_maxrate=15000 / vbv_bufsize=15000 / nal_hrd=vbr / ip_ratio=1.10 / pb_ratio=1.10 / aq=1:1.00

Audio
ID: 1
Format: AC-3
Format/Info: Audio Coding 3
Mode extension: CM (complete main)
Codec ID: A_AC3
Duration: 1h 53mn
Bit rate mode: Constant
Bit rate: 384 Kbps
Channel(s): 6 channels
Channel positions: Front: L C R, Side: L R, LFE
Sampling rate: 48.0 KHz
Bit depth: 16 bits
Compression mode: Lossy
Stream size: 311 MiB (13%)








Поделиться:




реклама партнёра


Вернуться к началу
 Профиль Отправить личное сообщение  
 
   Похожие торренты   Автор   Торрент   Размер 
В этой теме нет новых непрочитанных сообщений. Ночной беглец / Run All Night (Хауме Кольет-Серра) [боевик, триллер, драма, криминал, детектив, 2015] HDRip, Dub [iTunes]

Dracon

4 | 0

1.37 ГБ

В этой теме нет новых непрочитанных сообщений. Ночной беглец / Run All Night (Хауме Кольет-Серра) [боевик, триллер, драма, криминал, детектив, 2015] HDRip, Dub [iTunes]

Dracon

0 | 0

2.05 ГБ

В этой теме нет новых непрочитанных сообщений. Ночной беглец / Run All Night (Хауме Кольет-Серра) [боевик, триллер, драма, криминал, детектив, 2015] HDRip, dub [Чистый звук]

Dracon

7 | 0

1.46 ГБ

В этой теме нет новых непрочитанных сообщений. Воздушный маршал / Non-Stop (Хауме Кольет-Серра) [2014, Боевик, триллер, детектив, HDRip | Лицензия] Dub

PriZraK

212 | 11

1.45 ГБ

В этой теме нет новых непрочитанных сообщений. Ночной беглец / Run All Night (Хауме Кольет-Серра) [боевик, триллер, драма, криминал, детектив, 2015] BDRip, Dub [Лицензия]

Dracon

4 | 0

2.18 ГБ

В этой теме нет новых непрочитанных сообщений. Ночной беглец / Run All Night (Хауме Кольет-Серра) [боевик, триллер, драма, криминал, детектив, 2015] BDRip-AVC, Dub+Sub [Лицензия]

Dracon

307 | 7

1.46 ГБ

В этой теме нет новых непрочитанных сообщений. Ночной беглец / Run All Night (Хауме Кольет-Серра) [боевик, триллер, драма, криминал, детектив, 2015] BDRip, Dub [Лицензия]

Dracon

2 | 0

1.46 ГБ


Начать новую тему Ответить на тему  [ 1 сообщение ] 




Для Мосгорсуда, Роскомнадзора и рекламодателей:: mosgorsud-torrent[собачка]yandex.ru