Торрент файл
скачать торрент магнет ссылка Добавлен: 20 янв 2012, 22:55
Размер: 1.46 ГБ
Сидеров: 61
Личеров: 9
Автор

СообщениеДобавлено: 20 янв 2012, 22:55 

Не в сети
Супермодератор
Аватара пользователя
Дата регистрации:
11 апр 2010, 18:10
Спасибо: 5963 / 7
Сообщения: 56762
Смертельный лабиринт/Дом для девяти / House of 9

Перевод: Профессиональный (многоголосый, закадровый), cубтитры: отсутствуют

Формат: DVDRip, AVI, XviD, AC3

Страна: Германия, Франция, Великобритания, Румыния

Режиссер: Стивен Р. Монро

Жанр: ужасы, триллер, драма, детектив

Продолжительность: 01:26:46

Год выпуска: 2005

В ролях: Деннис Хоппер, Келли Брук, Ипполит Жирардо, Питер Капальди, Сьюзи Эмиm, Раффаэлло Дегруттола, Эшли Уолтерс, Морвен Кристи, Жюльенна Дэвис, Джим Картер

Описание: «Зачем любить ближнего своего, когда можно его убить?» — неожиданный вопрос для участников жестокой забавы таинственного садиста. Девять незнакомцев похищены средь бела дня, чтобы очнуться в запертом доме. Теперь они — пешки в смертельной игре на выживание. Условия просты — единственный оставшийся в живых получит в награду $5000000.

В четырех мрачных стенах, под наблюдением вездесущего «Старшего Брата», отчаяние и страх быстро сменяется алчностью и ненавистью. Кто первым прольет кровь собрата по несчастью? Кто последним превратится в зверя? Кто — хозяин этой тюрьмы? Узнает ли ответ окровавленный победитель?


[/field]

Видео: 688x512 (1.34:1), 25 fps, XviD build 50 ~1944 kbps avg, 0.22 bit/pixel
Аудио: 48 kHz, AC3 Dolby Digital, 3/2 (L,C,R,l,r) + LFE ch, ~448.00 kbps avg

Фильм имеет много общего с такими фильмами как «Куб», «Пила», «Колобос» и т. д., эксплуатируя тему реалити-шоу и людей в изолированном пространстве.
General
Complete name: E:\Загрузки\Smertel'nyu_labirint.avi
Format: AVI
Format/Info: Audio Video Interleave
File size: 1.46 GiB
Duration: 1h 26mn
Overall bit rate: 2 403 Kbps
Writing application: VirtualDubMod 1.5.10.2 (build 2540/release)
Writing library: VirtualDubMod build 2540/release

Video
ID: 0
Format: MPEG-4 Visual
Format profile: Advanced Simple@L5
Format settings, BVOP: 1
Format settings, QPel: No
Format settings, GMC: No warppoints
Format settings, Matrix: Custom
Codec ID: XVID
Codec ID/Hint: XviD
Duration: 1h 26mn
Bit rate: 1 945 Kbps
Width: 688 pixels
Height: 512 pixels
Display aspect ratio: 4:3
Frame rate: 25.000 fps
Color space: YUV
Chroma subsampling: 4:2:0
Bit depth: 8 bits
Scan type: Progressive
Compression mode: Lossy
Bits/(Pixel*Frame): 0.221
Stream size: 1.18 GiB (81%)
Writing library: XviD 1.2.1 (UTC 2008-12-04)

Audio
ID: 1
Format: AC-3
Format/Info: Audio Coding 3
Mode extension: CM (complete main)
Codec ID: 2000
Duration: 1h 26mn
Bit rate mode: Constant
Bit rate: 448 Kbps
Channel(s): 6 channels
Channel positions: Front: L C R, Side: L R, LFE
Sampling rate: 48.0 KHz
Bit depth: 16 bits
Compression mode: Lossy
Stream size: 278 MiB (19%)
Alignment: Split accross interleaves
Interleave, duration: 40 ms (1.00 video frame)
Interleave, preload duration: 500 ms










Поделиться:




реклама партнёра


Вернуться к началу
 Профиль Отправить личное сообщение  
 
   Похожие торренты   Автор   Торрент   Размер 
В этой теме нет новых непрочитанных сообщений. Экзорцизм Молли Хартли / The Exorcism of Molly Hartley (Стивен Р. Монро) [Ужасы, 2015] HDRip, dvo

Dracon

5737 | 208

1.46 ГБ

В этой теме нет новых непрочитанных сообщений. Экзорцизм Молли Хартли / The Exorcism of Molly Hartley (Стивен Р. Монро) [Ужасы, 2015] BDRip 720p, dvo

Dracon

1772 | 97

2.23 ГБ

В этой теме нет новых непрочитанных сообщений. Лабиринт / Lavirint [триллер, детектив, приключения, 2002] DVDRip, Avo

salma3

70 | 6

1.46 ГБ

В этой теме нет новых непрочитанных сообщений. Смертельный друг / Deadly Friend [детектив, фантастика, ужасы, драма, 1986] HDTVRip 720p, Avo+Mvo

salma3

35 | 3

2.66 ГБ

В этой теме нет новых непрочитанных сообщений. Смертельный голод / Starve (Грифф Ферст) [ужасы, триллер, 2014] DVDRip [2D]

Dracon

185 | 8

1.21 ГБ

В этой теме нет новых непрочитанных сообщений. Бугимен / Boogeyman [ужасы, триллер, драма, детектив, 2005] BDRip-AVC, Dub

salma3

44 | 6

741.62 МБ

В этой теме нет новых непрочитанных сообщений. Бугимен / Boogeyman [ужасы, триллер, драма, детектив, 2005] BDRip 1080р, Dub

salma3

19 | 4

8.9 ГБ


Начать новую тему Ответить на тему  [ 1 сообщение ] 




Для Мосгорсуда, Роскомнадзора и рекламодателей:: mosgorsud-torrent[собачка]yandex.ru