Торрент файл
скачать торрент магнет ссылка Добавлен: 20 янв 2012, 22:54
Размер: 1.46 ГБ
Сидеров: 166
Личеров: 11
Автор

СообщениеДобавлено: 20 янв 2012, 22:54 

Не в сети
Супермодератор
Аватара пользователя
Дата регистрации:
11 апр 2010, 18:10
Спасибо: 5802 / 7
Сообщения: 56779
Три дня на побег / The Next Three Days

«Все ради неё»

Перевод: Профессиональный (полное дублирование)
Субтитры:отсутствуют
Формат: HDRip, MKV, H.264, AC3

Страна: США
Режиссер: Пол Хаггис
Жанр: триллер, драма, мелодрама, криминал

Продолжительность: 02:13:08
Год выпуска: 2010

В ролях: Рассел Кроу, Элизабет Бэнкс, Лиам Нисон, Оливия Уайлд, Майкл Бьюи, Моран Атиас, Реми Нозик, Тоби Грин, Тайлер Грин, Джейсон Бех, Аиша Хиндс, Ти Кигэн Симпкинс

Описание: Жизнь Джона казалась идеальной, пока его красавицу жену не арестовали по подозрению в убийстве. Пока Лара сидит в тюрьме, Джон один воспитывает сына и пытается всеми способами доказать ее невиновность.

Но, когда законные способы освободить любимую исчерпаны, единственное, что ему остается — разработать изощренный план побега. Джон готов рискнуть всем ради нее… Но что если она действительно виновна?








Видео: 720x304 (2.35:1), 23.976 fps, AVC(x264) High@L4.1 ~1 181 kbps avg, 0.23 bit/pixel
Аудио: 48 kHz, АС3, 6 ch, ~384 kbps

Рип от:TswetkOFF
Релиз-Группа:




General
Unique ID: 198637216557639792992103526999720184262 (0x957022E76D88E52FAA433725047BC9C6)
Complete name: D:\Films\tri_dnya_na_pobeg_[tfile.ru].mkv
Format: Matroska
File size: 1.46 GiB
Duration: 2h 13mn
Overall bit rate: 1 566 Kbps
Encoded date: UTC 2011-07-27 20:04:35
Writing application: mkvmerge v4.6.0 ('Still Crazy After All These Years') сборка от Apr1 2011 21:01:49
Writing library: libebml v1.2.0 + libmatroska v1.1.0

Video
ID: 1
Format: AVC
Format/Info: Advanced Video Codec
Format profile: High@L4.1
Format settings, CABAC: Yes
Format settings, ReFrames: 4 frames
Codec ID: V_MPEG4/ISO/AVC
Duration: 2h 13mn
Bit rate: 1 181 Kbps
Width: 720 pixels
Height: 304 pixels
Display aspect ratio: 2.35:1
Frame rate: 23.976 fps
Color space: YUV
Chroma subsampling: 4:2:0
Bit depth: 8 bits
Scan type: Progressive
Bits/(Pixel*Frame): 0.225
Stream size: 1.07 GiB (73%)
Writing library: x264 core 115 r1937 aa21558
Encoding settings: cabac=1 / ref=2 / deblock=1:-1:-1 / analyse=0x3:0x113 / me=hex / subme=4 / psy=1 / psy_rd=0.00:0.10 / mixed_ref=0 / me_range=16 / chroma_me=1 / trellis=1 / 8x8dct=1 / cqm=0 / deadzone=21,11 / fast_pskip=1 / chroma_qp_offset=-1 / threads=3 / sliced_threads=0 / nr=0 / decimate=1 / interlaced=0 / bluray_compat=0 / constrained_intra=0 / bframes=3 / b_pyramid=2 / b_adapt=1 / b_bias=0 / direct=1 / weightb=1 / open_gop=0 / weightp=1 / keyint=250 / keyint_min=23 / scenecut=40 / intra_refresh=0 / rc_lookahead=20 / rc=2pass / mbtree=1 / bitrate=1181 / ratetol=1.0 / qcomp=0.60 / qpmin=0 / qpmax=69 / qpstep=4 / cplxblur=20.0 / qblur=0.5 / ip_ratio=1.40 / aq=1:1.00

Audio
ID: 2
Format: AC-3
Format/Info: Audio Coding 3
Mode extension: CM (complete main)
Codec ID: A_AC3
Duration: 2h 13mn
Bit rate mode: Constant
Bit rate: 384 Kbps
Channel(s): 6 channels
Channel positions: Front: L C R, Side: L R, LFE
Sampling rate: 48.0 KHz
Bit depth: 16 bits
Compression mode: Lossy
Stream size: 366 MiB (25%)














Поделиться:




реклама партнёра


Вернуться к началу
 Профиль Отправить личное сообщение  
 
   Похожие торренты   Автор   Торрент   Размер 
В этой теме нет новых непрочитанных сообщений. Три дня на побег / The Next Three Days [триллер, драма, мелодрама, криминал, 2010] BDRip, Dub

salma3

118 | 4

1.46 ГБ

В этой теме нет новых непрочитанных сообщений. Третья персона / Third Person (Пол Хаггис) [2013, драма, мелодрама, HDRip] dvo

Nickolas3435

412 | 8

2.05 ГБ

В этой теме нет новых непрочитанных сообщений. Третья персона / Third Person (Пол Хаггис / Paul Haggis) [2013г., драма, мелодрама, HDRip] dvo

Alfredovich

768 | 26

1.46 ГБ

В этой теме нет новых непрочитанных сообщений. 3 дня на убийство / 3 Days to Kill (МакДжи) [2014, Боевик, триллер, драма, криминал, HDRip | Расширенная версия | Лицензия] Dub

Nickolas3435

1726 | 36

1.45 ГБ

В этой теме нет новых непрочитанных сообщений. Побег / The Getaway [боевик, триллер, драма, 1994] HDRip, Mvo

salma3

0 | 2

1.46 ГБ

В этой теме нет новых непрочитанных сообщений. 3 дня на убийство / 3 Days to Kill [боевик, триллер, драма, 2014] HDRip, Dub [iTunes]

Dracon

2133 | 60

1.37 ГБ

В этой теме нет новых непрочитанных сообщений. Покажите мне героя / Show Me a Hero [01х01-06 из 06] (Пол Хаггис) [Драма, криминал, история, 2015] HDTVRip [Amedia]

Dracon

203 | 98

4.46 ГБ


Начать новую тему Ответить на тему  [ 1 сообщение ] 




Для Мосгорсуда, Роскомнадзора и рекламодателей:: mosgorsud-torrent[собачка]yandex.ru