Торрент файл
скачать торрент магнет ссылка Добавлен: 20 янв 2012, 22:51
Размер: 1.45 ГБ
Сидеров: 27
Личеров: 8
Автор

СообщениеДобавлено: 20 янв 2012, 22:51 

Не в сети
Супермодератор
Аватара пользователя
Дата регистрации:
11 апр 2010, 18:10
Спасибо: 5960 / 7
Сообщения: 56765
На гребне волны / Point Break


Перевод: Профессиональный (двухголосый), cубтитры: отсутствуют
Формат: HDRip-AVC, MKV, H.264, AC3
Страна: США, Япония
Режиссер: Кэтрин Бигелоу
Жанр: боевик, триллер, криминал
Продолжительность: 02:02:05
Год выпуска: 1991

В ролях: Патрик Суэйзи, Киану Ривз, Гэри Бьюзи, Лори Петти, Джон К. МакГинли, Джеймс ЛеГро, Джон Филбин, Боджесси Кристофер, Джулиан Рейес, Дэниэл Бир, Крис Пидерсен, Винсент Клин, Энтони Кидис, Дэйв Олсон, Ли Тергесен, Сидни Уолш, Кристофер Петтит, Дино Андино, Майкл Копелов, Мэтт Арчболд, Джули Майклс, Кимберли Мартин, Майк Дженовезе, Джек Келер, Галин Горг, Рэймонд Форчион, Бетси Линн Джордж, Шеннон Брук, Глория Манн, Пин Ву, Джаред Чэндлер, Джон Аписелла, Ричард Гроув, Энтони Мангано, Дебора Лемен, Мик Риган, Рэнди Уокер, Марша Л. Картер, Питер Фелпс

Описание: Таинственная банда серфингистов, среди белого дня, совершает ограбления банков. Полиция и ФБР поражены профессиональностью и скоростью проведения преступлений.
Следствие ведет молодой и претенциозный агент ФБР, который, рискуя жизнью, внедряется в банду и раскрывает это дело, но неожиданно для самого себя он осознает, что вернуться к нормальной жизни он уже не сможет.




Видео: 960 x 408 (2:35:1), 23.976 fps, AVC, х264, High@L4.1, ~ 1320 Kbps, 0.141 bit/pixel
Аудио: 48 kHz, AC3 Dolby Digital, 3/2 (L,C,R,l,r) + LFE ch, ~384 kbps


Рип: jeenart

General
Unique ID: 239960502603906893143511818020833121510 (0xB486B634D29018A5A41C50971062D4E6)
Complete name: F:\Мои релизы\Все релизы 10\na_grebne_volni_[tfile.ru].mkv
Format: Matroska
File size: 1.45 GiB
Duration: 2h 2mn
Overall bit rate: 1 705 Kbps
Encoded date: UTC 2011-08-02 17:39:49
Writing application: mkvmerge v4.6.0 ('Still Crazy After All These Years') сборка от Apr1 2011 21:01:49
Writing library: libebml v1.2.0 + libmatroska v1.1.0

Video
ID: 1
Format: AVC
Format/Info: Advanced Video Codec
Format profile: High@L4.1
Format settings, CABAC: Yes
Format settings, ReFrames: 8 frames
Codec ID: V_MPEG4/ISO/AVC
Duration: 2h 2mn
Bit rate: 1 320 Kbps
Width: 960 pixels
Height: 408 pixels
Display aspect ratio: 2.35:1
Frame rate: 23.976 fps
Color space: YUV
Chroma subsampling: 4:2:0
Bit depth: 8 bits
Scan type: Progressive
Bits/(Pixel*Frame): 0.141
Stream size: 1.10 GiB (75%)
Writing library: x264 core 115 r1937 aa21558
Encoding settings: cabac=1 / ref=8 / deblock=1:-1:-1 / analyse=0x3:0x133 / me=umh / subme=9 / psy=1 / psy_rd=1.00:0.10 / mixed_ref=1 / me_range=16 / chroma_me=1 / trellis=2 / 8x8dct=1 / cqm=0 / deadzone=21,11 / fast_pskip=1 / chroma_qp_offset=-3 / threads=6 / sliced_threads=0 / nr=0 / decimate=1 / interlaced=0 / bluray_compat=0 / constrained_intra=0 / bframes=3 / b_pyramid=2 / b_adapt=2 / b_bias=0 / direct=3 / weightb=1 / open_gop=0 / weightp=2 / keyint=250 / keyint_min=23 / scenecut=40 / intra_refresh=0 / rc_lookahead=60 / rc=2pass / mbtree=1 / bitrate=1320 / ratetol=1.0 / qcomp=0.60 / qpmin=0 / qpmax=69 / qpstep=4 / cplxblur=20.0 / qblur=0.5 / ip_ratio=1.40 / aq=1:1.00

Audio
ID: 2
Format: AC-3
Format/Info: Audio Coding 3
Mode extension: CM (complete main)
Codec ID: A_AC3
Duration: 2h 2mn
Bit rate mode: Constant
Bit rate: 384 Kbps
Channel(s): 6 channels
Channel positions: Front: L C R, Side: L R, LFE
Sampling rate: 48.0 KHz
Bit depth: 16 bits
Compression mode: Lossy
Stream size: 335 MiB (23%)






















Поделиться:




реклама партнёра


Вернуться к началу
 Профиль Отправить личное сообщение  
 
   Похожие торренты   Автор   Торрент   Размер 
В этой теме нет новых непрочитанных сообщений. На гребне волны / Point Break [боевик, триллер, криминал, 1991] WEB-DL 720p, Dub [Open Matte]

salma3

42 | 9

7.64 ГБ

В этой теме нет новых непрочитанных сообщений. На гребне волны / Point Break [Боевик, триллер, драма, криминал, спорт, 1991] BDRemux 1080p, Dub

salma3

3 | 6

33.29 ГБ

В этой теме нет новых непрочитанных сообщений. На гребне волны / Point Break [боевик, триллер, криминал, спорт, 2015] HDRip, Dub [лицензия]

salma3

11335 | 580

1.46 ГБ

В этой теме нет новых непрочитанных сообщений. На гребне волны / Point Break [боевик, триллер, криминал, спорт, 2015] HDRip, Dub [лицензия]

salma3

4376 | 163

2.19 ГБ

В этой теме нет новых непрочитанных сообщений. На гребне волны / Point Break [Боевик, триллер, криминал, спорт, 2015] HDRip, Dub [Лицензия]

salma3

14 | 5

748.72 МБ

В этой теме нет новых непрочитанных сообщений. На гребне волны / Point Break [боевик, триллер, криминал, спорт, 2015] DVD5, Dub [лицензия]

salma3

1 | 1

4.37 ГБ

В этой теме нет новых непрочитанных сообщений. На гребне волны / Point Break [Боевик, триллер, криминал, спорт, 2015] BDRip , Dub+Sub [лицензия]

salma3

15 | 5

2.18 ГБ


Начать новую тему Ответить на тему  [ 1 сообщение ] 




Для Мосгорсуда, Роскомнадзора и рекламодателей:: mosgorsud-torrent[собачка]yandex.ru