Торрент файл
скачать торрент магнет ссылка Добавлен: 20 янв 2012, 22:48
Размер: 1.45 ГБ
Сидеров: 0
Личеров: 5
Автор

СообщениеДобавлено: 20 янв 2012, 22:48 

Не в сети
Супермодератор
Аватара пользователя
Дата регистрации:
11 апр 2010, 18:10
Спасибо: 5799 / 7
Сообщения: 56779
Проклятый сезон / Dark Blue

Перевод: Профессиональный (полное дублирование), cубтитры: русские,английские (отдельно)

Формат: HDRip, AVI, XviD, AC3

Страна: США, Германия, Великобритания

Режиссер: Рон Шелтон

Жанр: триллер, драма, криминал

Продолжительность: 01:57:58

Год выпуска: 2002

В ролях: Курт Расселл, Скотт Спидман, Майкл Мишель, Брендан Глисон, Винг Рэймс, Дэш Майок, Джонатан Бэнкс, Лолита Давидович

Описание: Полицейский департамент Лос-Анджелеса, апрель 1992 года. Действие этого драматического триллера происходит за несколько дней до оправдания четырех белых полицейских в жестоком избиении темнокожего Родни Кинга и последующих беспорядков в Лос-Анджелесе.

В этой напряженной расистской атмосфере, элитному отделу Полицейского Департамента Лос-Анджелеса по специальным расследованиям поручено разобраться с убийствами.


[/field]

Видео: 720x304 (2.37:1), 23.976 fps, XviD MPEG-4 ~1307 kbps avg, 0.25 bit/pixel
Аудио: 48 kHz, AC3 Dolby Digital, 3/2 (L,C,R,l,r) + LFE ch, ~448.00 kbps avg

Бюджет $15 000 000

Маркетинг $15 000 000

Сборы в США $9 250 301

Сборы в мире + $2 900 000 = $12 150 301
General
Complete name: E:\Загрузки\Dark.Blue.2002.BDRip\Dark.Blue.2002.BDRip.avi
Format: AVI
Format/Info: Audio Video Interleave
File size: 1.45 GiB
Duration: 1h 57mn
Overall bit rate: 1 765 Kbps
Writing application: VirtualDubMod 1.5.10.2 (build 2540/release)
Comment: BDRip by KAE

Video
ID: 0
Format: MPEG-4 Visual
Format profile: Advanced Simple@L5
Format settings, BVOP: 1
Format settings, QPel: No
Format settings, GMC: No warppoints
Format settings, Matrix: Default (MPEG)
Muxing mode: Packed bitstream
Codec ID: XVID
Codec ID/Hint: XviD
Duration: 1h 57mn
Bit rate: 1 307 Kbps
Width: 720 pixels
Height: 304 pixels
Display aspect ratio: 2.35:1
Frame rate: 23.976 fps
Color space: YUV
Chroma subsampling: 4:2:0
Bit depth: 8 bits
Scan type: Progressive
Compression mode: Lossy
Bits/(Pixel*Frame): 0.249
Stream size: 1.08 GiB (74%)
Writing library: XviD 1.2.1 (UTC 2008-12-04)

Audio
ID: 1
Format: AC-3
Format/Info: Audio Coding 3
Mode extension: CM (complete main)
Codec ID: 2000
Duration: 1h 57mn
Bit rate mode: Constant
Bit rate: 448 Kbps
Channel(s): 6 channels
Channel positions: Front: L C R, Side: L R, LFE
Sampling rate: 48.0 KHz
Bit depth: 16 bits
Compression mode: Lossy
Stream size: 378 MiB (25%)
Alignment: Split accross interleaves
Interleave, duration: 42 ms (1.00 video frame)
Interleave, preload duration: 500 ms









Поделиться:




реклама партнёра


Вернуться к началу
 Профиль Отправить личное сообщение  
 
   Похожие торренты   Автор   Торрент   Размер 
В этой теме нет новых непрочитанных сообщений. Проклятый сезон / Dark Blue [триллер, драма, криминал, 2002] BDRip 720p, Dub+Avo+Sub

salma3

41 | 8

4.26 ГБ

В этой теме нет новых непрочитанных сообщений. Проклятый дом / The Killing Floor [триллер, криминал, детектив, 2007] DVDRip, Mvo

salma3

69 | 3

1.37 ГБ

В этой теме нет новых непрочитанных сообщений. Голубая кровь / Blue Bloods / 2 сезон 1-22 серии из 22 [Драма, криминал, 2011] WEB-DLRip, Dvo [CBS Drama]

salma3

27 | 44

8.67 ГБ

В этой теме нет новых непрочитанных сообщений. Оттенки синего / Shades Of Blue / 1 сезон 1-13 серии из 13 [драма, криминал, 2016] WEB-DLRip, Mvo [BaibaKo]

salma3

129 | 73

7.41 ГБ

В этой теме нет новых непрочитанных сообщений. Оттенки синего / Shades Of Blue / 1 сезон 1-10 серии из 13 [драма, криминал, 2016] WEB-DLRip, Mvo [IdeaFilm]

Dracon

1 | 0

5.37 ГБ

В этой теме нет новых непрочитанных сообщений. Голубая кровь / Blue Bloods / 3 сезон 1-5 серии из 23 [Драма, криминал, 2012] WEB-DLRip, Dvo [CBS Drama]

salma3

1 | 1

1.97 ГБ

В этой теме нет новых непрочитанных сообщений. Голубая кровь / Blue Bloods / 1 сезон 1-22 серии из 22 [драма, криминал, 2010-2011] WEB-DLRip, Dvo [AlexFilm]

salma3

32 | 5

10.99 ГБ


Начать новую тему Ответить на тему  [ 1 сообщение ] 




Для Мосгорсуда, Роскомнадзора и рекламодателей:: mosgorsud-torrent[собачка]yandex.ru