Торрент файл
скачать торрент магнет ссылка Добавлен: 20 янв 2012, 22:47
Размер: 745.86 МБ
Сидеров: 12
Личеров: 6
Автор

СообщениеДобавлено: 20 янв 2012, 22:47 

Не в сети
Супермодератор
Аватара пользователя
Дата регистрации:
11 апр 2010, 18:10
Спасибо: 5962 / 7
Сообщения: 56765
Игра / The Game


Перевод: Профессиональный (многоголосый, закадровый)
Субтитры:отсутствуют
Формат: LowHDRip, MKV, H.264, AC3

Страна: США
Режиссер: Дэвид Финчер
Жанр: триллер, приключения, детектив

Продолжительность: 02:08:38
Год выпуска: 1997

В ролях:Майкл Дуглас, Шон Пенн, Джеймс Ребхорн, Кимберли Расселл, Армин Мюллер-Шталь, Анна Катарина

Описание: Николас Ван Ортон - само воплощение успеха. Он преуспевает, он невозмутим и спокоен, привык держать любую ситуацию под контролем. На день рождения Николас получает необычный подарок - билет для участия в "Игре". Ему обещают, что игра вернет яркие чувства, позволит ощутить вкус и остроту жизни. Вступив в игру, Николас начинает осознавать, что эта игра всерьез, игра не на жизнь, а на смерть.







Видео: 704x296 (2.35:1), 23.976 fps, AVC (x264) High@L4.1 ~681 kbps avg, 0.14 bit/pixel
Аудио: 48 kHz, AC3 Dolby Digital, 2 ch, ~128 kbps avg

Рип от:TswetkOFF
Релиз-Группа:




General
Unique ID: 223122380439120448157494054978132401238 (0xA7DBCEB021E1551292AD74161F6C5C56)
Complete name: D:\Films\the_game_[tfile.ru].mkv
Format: Matroska
File size: 746 MiB
Duration: 2h 8mn
Overall bit rate: 811 Kbps
Encoded date: UTC 2011-08-10 17:38:53
Writing application: mkvmerge v4.6.0 ('Still Crazy After All These Years') сборка от Apr1 2011 21:01:49
Writing library: libebml v1.2.0 + libmatroska v1.1.0

Video
ID: 1
Format: AVC
Format/Info: Advanced Video Codec
Format profile: High@L4.1
Format settings, CABAC: Yes
Format settings, ReFrames: 4 frames
Codec ID: V_MPEG4/ISO/AVC
Duration: 2h 8mn
Bit rate: 681 Kbps
Width: 704 pixels
Height: 296 pixels
Display aspect ratio: 2.35:1
Frame rate: 23.976 fps
Color space: YUV
Chroma subsampling: 4:2:0
Bit depth: 8 bits
Scan type: Progressive
Bits/(Pixel*Frame): 0.136
Stream size: 613 MiB (82%)
Writing library: x264 core 115 r1937 aa21558
Encoding settings: cabac=1 / ref=2 / deblock=1:-1:-1 / analyse=0x3:0x113 / me=hex / subme=6 / psy=1 / psy_rd=1.00:0.20 / mixed_ref=1 / me_range=16 / chroma_me=1 / trellis=1 / 8x8dct=1 / cqm=0 / deadzone=21,11 / fast_pskip=1 / chroma_qp_offset=-3 / threads=3 / sliced_threads=0 / nr=0 / decimate=0 / interlaced=0 / bluray_compat=0 / constrained_intra=0 / bframes=3 / b_pyramid=2 / b_adapt=1 / b_bias=0 / direct=1 / weightb=1 / open_gop=0 / weightp=1 / keyint=250 / keyint_min=23 / scenecut=40 / intra_refresh=0 / rc_lookahead=30 / rc=2pass / mbtree=1 / bitrate=681 / ratetol=1.0 / qcomp=0.60 / qpmin=0 / qpmax=69 / qpstep=4 / cplxblur=20.0 / qblur=0.5 / ip_ratio=1.40 / aq=1:1.00

Audio
ID: 2
Format: AC-3
Format/Info: Audio Coding 3
Mode extension: CM (complete main)
Codec ID: A_AC3
Duration: 2h 8mn
Bit rate mode: Constant
Bit rate: 128 Kbps
Channel(s): 2 channels
Channel positions: Front: L R
Sampling rate: 48.0 KHz
Bit depth: 16 bits
Compression mode: Lossy
Stream size: 118 MiB (16%)



















Поделиться:




реклама партнёра


Вернуться к началу
 Профиль Отправить личное сообщение  
 
   Похожие торренты   Автор   Торрент   Размер 
В этой теме нет новых непрочитанных сообщений. Игра / The Game [триллер, драма, детектив, 1997] HDRip-AVC, Mvo

salma3

41 | 2

744.95 МБ

В этой теме нет новых непрочитанных сообщений. Игра палача / Hangman's Game [ужасы, триллер, детектив, 2015] WEB-DLRip, Avo

salma3

208 | 14

1.38 ГБ

В этой теме нет новых непрочитанных сообщений. Игра смерти / Game of Death [боевик, триллер, приключения, 2010] BDRip, Mvo [Ren-TV]

salma3

168 | 88

1.45 ГБ

В этой теме нет новых непрочитанных сообщений. Игра Эндера / Ender's Game (Гэвин Худ) [фантастика, боевик, приключения, 2013] Blu-Ray 1080p, Dub+Avo+Sub

Dracon

13 | 9

46.01 ГБ

В этой теме нет новых непрочитанных сообщений. Большая игра / Big Game (Ялмари Хеландер) [Боевик, Приключения, 2014] HDRip, Dub [iTunes]

Dracon

289 | 10

1.37 ГБ

В этой теме нет новых непрочитанных сообщений. Игра Эндера / Ender's Game [фантастика, боевик, приключения, 2013] HDRip, Dub [Лицензия]

Dracon

2338 | 81

1.37 ГБ

В этой теме нет новых непрочитанных сообщений. Игра Джеральда / Gerald's Game [триллер, 2017] WEBRip, Mvo

salma3

974 | 54

1.37 ГБ


Начать новую тему Ответить на тему  [ 1 сообщение ] 




Для Мосгорсуда, Роскомнадзора и рекламодателей:: mosgorsud-torrent[собачка]yandex.ru