Торрент файл
скачать торрент магнет ссылка Добавлен: 20 янв 2012, 22:44
Размер: 1.37 ГБ
Сидеров: 3
Личеров: 7
Автор

СообщениеДобавлено: 20 янв 2012, 22:44 

Не в сети
Супермодератор
Аватара пользователя
Дата регистрации:
11 апр 2010, 18:10
Спасибо: 5802 / 7
Сообщения: 56779
Немой свидетель / Mute Witness

Перевод: Профессиональный (двухголосый), cубтитры: отсутствуют

Формат: DVDRip, AVI, XviD, AC3

Страна: США, Россия, Германия, Великобритания

Режиссер: Энтони Уоллер

Жанр: ужасы, триллер, комедия

Продолжительность: 01:36:38

Год выпуска: 1994

В ролях: Фэй Рипли, Марина Зудина, Эван Ричардс, Олег Янковский, Сергей Карленков, Александр Пятков, Николай Пастухов, Игорь Волков, Денис Карасев, Ольга Толстецкая, Николай Чиндяйкин

Описание: Билли работает помощницей режиссера на съемках американского кинофильма, которые проходят в Москве. Однажды поздно вечером она оказывается запертой на старой киностудии и становится свидетелем съемок подпольного порнофильма, заканчивающегося зверским убийством девушки-актрисы.

Но беда в том, что Билли немая — она не может закричать, не может позвать на помощь. Билли пытается «рассказать» о преступлении своим друзьям и милиции, но ее никто не принимает всерьез.

С этого момента жизнь Билли превращается в кошмар — преступники во что бы то ни стало хотят избавиться от опасного свидетеля! Билли вынуждена бороться за свою жизнь в одиночку, не рассчитывая на помощь в чужой для нее стране…


[/field]

Видео: 720x320 (2.25:1), 23.976 fps, XviD build 47 ~1799 kbps avg, 0.33 bit/pixel
Аудио: 48 kHz, AC3 Dolby Digital, 2/0 (L,R) ch, ~224.00 kbps avg

Ника, 1995 год

Победитель (1):
Лучший продюсер (Александр Атанесян, Григорий Ряжский)
General
Complete name: E:\Загрузки\Немой свидетель - Mute Witness (1994).avi
Format: AVI
Format/Info: Audio Video Interleave
File size: 1.37 GiB
Duration: 1h 36mn
Overall bit rate: 2 029 Kbps
Writing application: VirtualDubMod 1.5.4.1 (build 2178/release)
Writing library: VirtualDubMod build 2178/release

Video
ID: 0
Format: MPEG-4 Visual
Format profile: Advanced Simple@L5
Format settings, BVOP: No
Format settings, QPel: No
Format settings, GMC: No warppoints
Format settings, Matrix: Custom
Codec ID: XVID
Codec ID/Hint: XviD
Duration: 1h 36mn
Bit rate: 1 799 Kbps
Width: 720 pixels
Height: 320 pixels
Display aspect ratio: 2.25:1
Frame rate: 23.976 fps
Color space: YUV
Chroma subsampling: 4:2:0
Bit depth: 8 bits
Scan type: Progressive
Compression mode: Lossy
Bits/(Pixel*Frame): 0.326
Stream size: 1.21 GiB (89%)
Writing library: XviD 1.2.0.dev47 (UTC 2006-11-01)

Audio
ID: 1
Format: AC-3
Format/Info: Audio Coding 3
Mode extension: CM (complete main)
Codec ID: 2000
Duration: 1h 36mn
Bit rate mode: Constant
Bit rate: 224 Kbps
Channel(s): 2 channels
Channel positions: Front: L R
Sampling rate: 48.0 KHz
Bit depth: 16 bits
Compression mode: Lossy
Stream size: 154 MiB (11%)
Alignment: Split accross interleaves
Interleave, duration: 96 ms (2.30 video frames)
Interleave, preload duration: 96 ms

















Поделиться:




реклама партнёра


Вернуться к началу
 Профиль Отправить личное сообщение  
 
   Похожие торренты   Автор   Торрент   Размер 
В этой теме нет новых непрочитанных сообщений. Немой свидетель / Безмолвный свидетель / Silent Witness (Фей Син / Fei Xing) [2013г., детектив, драма, WEB-DLRip] MVO

Alfredovich

2 | 2

2.06 ГБ

В этой теме нет новых непрочитанных сообщений. Голый свидетель / Bare witness [Триллер, Детектив, 2002] DVDRip, Mvo

salma3

4 | 4

1.37 ГБ

В этой теме нет новых непрочитанных сообщений. Свидетель / Witness [триллер, драма, мелодрама, криминал, 1985] HDRip, Avo

salma3

30 | 2

1.38 ГБ

В этой теме нет новых непрочитанных сообщений. Свидетель / Witness [триллер, драма, мелодрама, 1985] BDRip 1080p, 2Mvo+Avo

salma3

14 | 2

8.15 ГБ

В этой теме нет новых непрочитанных сообщений. Свидетель / The Witness / Wo shi zheng ren (Сан-Хун Ан / Sang-hoon Ahn) [2015г., Китай, криминал, драма, WEB-DLRip-AVC] DVO

Alfredovich

14 | 4

1.47 ГБ

В этой теме нет новых непрочитанных сообщений. Cold Red Mute - Cold Red Mute [2013, Hard Rock,Heavy Metal, MP3]

PriZraK

0 | 1

80.64 МБ

В этой теме нет новых непрочитанных сообщений. Секретные файлы / The Witness Files [Боевик, триллер, 1999] DVDRip, Mvo

salma3

35 | 2

1.25 ГБ


Начать новую тему Ответить на тему  [ 1 сообщение ] 




Для Мосгорсуда, Роскомнадзора и рекламодателей:: mosgorsud-torrent[собачка]yandex.ru