Торрент файл
скачать торрент магнет ссылка Добавлен: 20 янв 2012, 22:40
Размер: 1.31 ГБ
Сидеров: 34
Личеров: 8
Автор

СообщениеДобавлено: 20 янв 2012, 22:40 

Не в сети
Супермодератор
Аватара пользователя
Дата регистрации:
11 апр 2010, 18:10
Спасибо: 5960 / 7
Сообщения: 56765
[b]Не впускай его / Don't Let Him In[/b]

Перевод: Любительский (одноголосый), cубтитры: русские

Формат: DVDRip, AVI, XviD, MP3

Страна: Великобритания

Режиссер: Келли Смит

Жанр: ужасы, триллер

Продолжительность: 01:15:58

Год выпуска: 2011

В ролях: Софи Линфилд,Сэм Хэзелдайн,Гордон Александр,Джемма Харви,Риз Мередит,Эстер Шепард,Джейсон Картер,Поппи Граут,Клемми Рубенс

Описание: Кэлвин с сестрой Мэнди и подругой Пейдж едет на выходные на дачу. Мэнди уговаривает брата взять с собой и её нового приятеля Тристена, с которым она познакомилась накануне. Тристен производит впечатление человека нервного и замкнутого, а по приезду за город и вовсе куда-то уходит.

Позже у дома появляется полицейский и сообщает отдыхающим, что в окрестностях может орудовать маньяк. А ночью, когда Мэнди и Кэлвин отправляются на поиски Тристена, к компании присоединяется ещё один тип — раненый мужчина, заявляющий, что кто-то напал на него в лесу.


[/field]

Видео: 720 x 384 (1.875) at 25.000 fps, XviD MPEG-4 ~ 2078 kbps avg, 0.301 bit/pixel

Аудио #1:Русский:48 kHz, MPEG Layer 3, 2 ch, ~192.00 kbps avg Любительский (одноголосый)
Аудио #2:Английский: 48 kHz, AC3 Dolby Digital, 2/0 (L,R) ch, ~192.00 kbps avg [Оригинал]

Доп. информация: Премьера (мир) 9 августа 2011

General
Complete name: E:\Загрузки\Don't.Let.Him.In.DVDRip.2011.avi
Format: AVI
Format/Info: Audio Video Interleave
File size: 1.31 GiB
Duration: 1h 15mn
Overall bit rate: 2 470 Kbps

Video
ID: 0
Format: MPEG-4 Visual
Format profile: Advanced Simple@L5
Format settings, BVOP: 1
Format settings, QPel: No
Format settings, GMC: No warppoints
Format settings, Matrix: Custom
Codec ID: XVID
Codec ID/Hint: XviD
Duration: 1h 15mn
Bit rate: 2 078 Kbps
Width: 720 pixels
Height: 384 pixels
Display aspect ratio: 1.875
Frame rate: 25.000 fps
Color space: YUV
Chroma subsampling: 4:2:0
Bit depth: 8 bits
Scan type: Progressive
Compression mode: Lossy
Bits/(Pixel*Frame): 0.301
Stream size: 1.10 GiB (84%)
Writing library: XviD 1.2.1 (UTC 2008-12-04)

Audio #1
ID: 1
Format: MPEG Audio
Format version: Version 1
Format profile: Layer 3
Mode: Joint stereo
Mode extension: MS Stereo
Codec ID: 55
Codec ID/Hint: MP3
Duration: 1h 15mn
Bit rate mode: Constant
Bit rate: 192 Kbps
Channel(s): 2 channels
Sampling rate: 48.0 KHz
Compression mode: Lossy
Stream size: 104 MiB (8%)
Alignment: Aligned on interleaves
Interleave, duration: 360 ms (9.00 video frames)
Interleave, preload duration: 216 ms
Title: ne.vpuskai
Writing library: LAME3.96

Audio #2
ID: 2
Format: AC-3
Format/Info: Audio Coding 3
Mode extension: CM (complete main)
Codec ID: 2000
Duration: 1h 15mn
Bit rate mode: Constant
Bit rate: 192 Kbps
Channel(s): 2 channels
Channel positions: Front: L R
Sampling rate: 48.0 KHz
Bit depth: 16 bits
Compression mode: Lossy
Stream size: 104 MiB (8%)
Alignment: Aligned on interleaves
Interleave, duration: 64 ms (1.60 video frames)
Interleave, preload duration: 192 ms
Title: ne.vpuskai

Text
ID: 3
Duration: 1h 15mn
Bit rate: 98 bps
Stream size: 54.7 KiB (0%)
Title: Don't.Let.Him.In









Поделиться:




реклама партнёра


Вернуться к началу
 Профиль Отправить личное сообщение  
 
   Похожие торренты   Автор   Торрент   Размер 
В этой теме нет новых непрочитанных сообщений. Джон Доу / John Doe: Vigilante (Келли Долен) [боевик, триллер, 2014] HDRip, dvo

Dracon

4536 | 118

1.36 ГБ

В этой теме нет новых непрочитанных сообщений. Джон Доу / John Doe: Vigilante (Келли Долен) [боевик, триллер, 2014] BDRip 720p, dvo

Dracon

1289 | 47

4.48 ГБ

В этой теме нет новых непрочитанных сообщений. Убийцы зомби: кладбище слонов / Zombie Killers: Elephant's Graveyard (Харрисон Смит) [ужасы, 2015] HDRip, avo

Dracon

5 | 1

1.09 ГБ

В этой теме нет новых непрочитанных сообщений. Волшебники / The Magicians [01x01-02 из 10] (Джеймс Л. Конуэй, Скотт Смит, Гай Норман Би) [2015, ужасы, фэнтези, драма, детектив, HDTVRip | BaibaKo]

Dracon

30 | 18

1.24 ГБ

В этой теме нет новых непрочитанных сообщений. Волшебники / The Magicians [01x01-05 из 10] (Скотт Смит, Майк Кэхилл, Ян Элиасберг) [2015, ужасы, фэнтези, драма, детектив, HDTVRip | Jaskier]

Dracon

23 | 22

2.96 ГБ

В этой теме нет новых непрочитанных сообщений. Волшебники / The Magicians [01х01 из 13] (Скотт Смит, Майк Кэхилл, Ян Элиасберг) [ужасы, фэнтези, драма, детективдрама, 2015] HDTVRip 720p [BaibaKo]

Dracon

693 | 46

1.29 ГБ

В этой теме нет новых непрочитанных сообщений. Волшебники / The Magicians [01х01-05 из 13] (Скотт Смит, Майк Кэхилл, Ян Элиасберг) [2015, Детектив, Драма, Ужасы, Фэнтези, HDTVRip 720p | Jaskier]

Dracon

24 | 20

4.7 ГБ


Начать новую тему Ответить на тему  [ 1 сообщение ] 




Для Мосгорсуда, Роскомнадзора и рекламодателей:: mosgorsud-torrent[собачка]yandex.ru