Торрент файл
скачать торрент магнет ссылка Добавлен: 20 янв 2012, 22:40
Размер: 1.45 ГБ
Сидеров: 2
Личеров: 6
Автор

СообщениеДобавлено: 20 янв 2012, 22:40 

Не в сети
Супермодератор
Аватара пользователя
Дата регистрации:
11 апр 2010, 18:10
Спасибо: 5963 / 7
Сообщения: 56762
Игра по правилам (Честная игра) / Fair Play


Перевод: Профессиональный (многоголосый, закадровый), cубтитры: отсутствуют
Формат: HDRip-AVC, MKV, H.264, AC3
Страна: Франция
Режиссер: Лионель Байю
Жанр: психологический триллер
Продолжительность: 01:38:02
Год выпуска: 2006

В ролях: Жереми Ренье, Бенуа Мажимель, Жан-Пьер Кассель, Марион Котильяр, Мелани Дутей, Эрик Савен, Малкольм Конрат

Описание: Психология большого бизнеса по достижению успеха рождает жестокую конкуренцию среди менеджеров высшего звена в большой компании и создает атмосферу напряжения в коллективе. Боссы и их подчиненные в выходные устраивают между собой соревнование по разным видам спорта.
Невинный, казалось бы, «корпоратив» на свежем воздухе на фоне драфтинга с плаванием и скалолазанием оказывается на поверку едкой метафорой трудовых отношений в современном капиталистическом обществе. Когда директор сам становится объектом интриг, он, чтобы спасти свое положение, превращает этот поход в способ шантажа для решения своих проблем.




Видео: 976 x 528 (1:85:1), 24.000 fps, AVC, х264, High@L4.1, ~ 1929 Kbps, 0.156 bit/pixel
Аудио: 48 kHz, AC3 Dolby Digital, 2/0 (L,R) ch, ~192 kbps


Рип: jeenart

General
Unique ID: 229282031875102037241124077225485505519 (0xAC7E1CF37459B83E9A4344DAE60B93EF)
Complete name: F:\Мои релизы\Все релизы 10\igra_po_pravilam_[tfile.ru].mkv
Format: Matroska
File size: 1.45 GiB
Duration: 1h 38mn
Overall bit rate: 2 122 Kbps
Encoded date: UTC 2011-08-25 10:06:18
Writing application: mkvmerge v4.6.0 ('Still Crazy After All These Years') сборка от Apr1 2011 21:01:49
Writing library: libebml v1.2.0 + libmatroska v1.1.0

Video
ID: 1
Format: AVC
Format/Info: Advanced Video Codec
Format profile: High@L4.1
Format settings, CABAC: Yes
Format settings, ReFrames: 4 frames
Codec ID: V_MPEG4/ISO/AVC
Duration: 1h 38mn
Bit rate: 1 929 Kbps
Width: 976 pixels
Height: 528 pixels
Display aspect ratio: 16:9
Frame rate: 24.000 fps
Color space: YUV
Chroma subsampling: 4:2:0
Bit depth: 8 bits
Scan type: Progressive
Bits/(Pixel*Frame): 0.156
Stream size: 1.29 GiB (89%)
Writing library: x264 core 115 r1937 aa21558
Encoding settings: cabac=1 / ref=3 / deblock=1:-1:-1 / analyse=0x3:0x113 / me=hex / subme=7 / psy=1 / psy_rd=1.00:0.10 / mixed_ref=1 / me_range=16 / chroma_me=1 / trellis=1 / 8x8dct=1 / cqm=0 / deadzone=21,11 / fast_pskip=1 / chroma_qp_offset=-3 / threads=6 / sliced_threads=0 / nr=0 / decimate=1 / interlaced=0 / bluray_compat=0 / constrained_intra=0 / bframes=3 / b_pyramid=2 / b_adapt=1 / b_bias=0 / direct=1 / weightb=1 / open_gop=0 / weightp=2 / keyint=250 / keyint_min=23 / scenecut=40 / intra_refresh=0 / rc_lookahead=40 / rc=2pass / mbtree=1 / bitrate=1929 / ratetol=1.0 / qcomp=0.60 / qpmin=0 / qpmax=69 / qpstep=4 / cplxblur=20.0 / qblur=0.5 / ip_ratio=1.40 / aq=1:1.00

Audio
ID: 2
Format: AC-3
Format/Info: Audio Coding 3
Mode extension: CM (complete main)
Codec ID: A_AC3
Duration: 1h 38mn
Bit rate mode: Constant
Bit rate: 192 Kbps
Channel(s): 2 channels
Channel positions: Front: L R
Sampling rate: 48.0 KHz
Bit depth: 16 bits
Compression mode: Lossy
Stream size: 135 MiB (9%)
























Поделиться:




реклама партнёра


Вернуться к началу
 Профиль Отправить личное сообщение  
 
   Похожие торренты   Автор   Торрент   Размер 
В этой теме нет новых непрочитанных сообщений. Игра по правилам / Fair Play [драма, спорт, 2014] HDRip, avo

Dracon

7 | 5

1.37 ГБ

В этой теме нет новых непрочитанных сообщений. Игра по правилам / Fair Play [драма, спорт, 2014] BDRip 1080p, avo+sub

Dracon

3 | 2

9.42 ГБ

В этой теме нет новых непрочитанных сообщений. Игра по правилам / Fair Play [драма, спорт, 2014] BDRip 720p, avo+sub

Dracon

11 | 3

5.63 ГБ

В этой теме нет новых непрочитанных сообщений. Честная игра / Fair Game [боевик, триллер, 1995] WEB-DL 720p, Dub

salma3

8 | 11

4.45 ГБ

В этой теме нет новых непрочитанных сообщений. Честная игра / Fair Game [боевик, триллер, 1995] WEBDLRip, Dub

salma3

11 | 3

1.46 ГБ

В этой теме нет новых непрочитанных сообщений. Игра по чужим правилам / Glory Road [драма, биография, спорт, 2006] BDRip-AVC, Mvo

salma3

31 | 4

747.84 МБ

В этой теме нет новых непрочитанных сообщений. Игра без правил / Fair Game [триллер, драма, биография, 2010] BDRip 720p, Dub+Sub

salma3

39 | 18

4.85 ГБ


Начать новую тему Ответить на тему  [ 1 сообщение ] 




Для Мосгорсуда, Роскомнадзора и рекламодателей:: mosgorsud-torrent[собачка]yandex.ru