Торрент файл
скачать торрент магнет ссылка Добавлен: 20 янв 2012, 22:38
Размер: 2.1 ГБ
Сидеров: 117
Личеров: 13
Автор

СообщениеДобавлено: 20 янв 2012, 22:38 

Не в сети
Супермодератор
Аватара пользователя
Дата регистрации:
11 апр 2010, 18:10
Спасибо: 5802 / 7
Сообщения: 56779
Лицо со шрамом / Scarface


Перевод: Профессиональный (многоголосый, закадровый), cубтитры: отсутствуют
Формат: HDRip-AVC, MKV, H.264, AC3
Страна: США
Режиссер: Брайан Де Пальма
Жанр: триллер, драма, криминал
Продолжительность: 02:50:00
Год выпуска: 1983

В ролях: Аль Пачино, Стивен Бауэр, Мишель Пфайффер, Мэри Элизабет Мастрантонио, Роберт Лоджа, Мириам Колон, Ф. Мюррэй Абрахам, Пол Шенар, Харрис Юлин, Анхель Салазар

Описание: Весной 1980 года был открыт порт Мэйриэл Харбор, и тысячи кубинских беженцев ринулись в Соединенные Штаты на поиски Американской Мечты. Один из них нашел ее на залитых солнцем улицах Майами. Богатство, власть и страсть, превзошли даже самые невероятные его мечты. Его звали Тони Монтана. Мир запомнил его под другим именем... "Лицо со шрамом". Аль Пачино в роли Тони Монтана создал незабываемый образ одного из самых безжалостных гангстеров в истории кино. "Лицо со шрамом" - история кровавой карьеры мелкого бандита, беженца с Кубы, ставшего королем кокаиновой империи Майами.



Видео: 960 x 408 (2.35:1), 23.976 fps, AVC, х264, High@L4.1, ~ 1386 Kbps, 0.148 bit/pixel
Аудио: 48 kHz, AC3 Dolby Digital, 3/2 (L,C,R,l,r) + LFE ch, ~384 kbps


Рип: jeenart

Toп250: #98
General
Unique ID: 229262900098170731853985702152616223388 (0xAC7A6DAE7B087462B313F1B4D21B229C)
Complete name: F:\Мои релизы\Все релизы 10\lico_so_shramom_[tfile.ru].mkv
Format: Matroska
File size: 2.10 GiB
Duration: 2h 50mn
Overall bit rate: 1 771 Kbps
Encoded date: UTC 2011-08-31 21:58:30
Writing application: mkvmerge v4.6.0 ('Still Crazy After All These Years') сборка от Apr1 2011 21:01:49
Writing library: libebml v1.2.0 + libmatroska v1.1.0

Video
ID: 1
Format: AVC
Format/Info: Advanced Video Codec
Format profile: High@L4.1
Format settings, CABAC: Yes
Format settings, ReFrames: 4 frames
Codec ID: V_MPEG4/ISO/AVC
Duration: 2h 50mn
Bit rate: 1 386 Kbps
Width: 960 pixels
Height: 408 pixels
Display aspect ratio: 2.35:1
Frame rate: 23.976 fps
Color space: YUV
Chroma subsampling: 4:2:0
Bit depth: 8 bits
Scan type: Progressive
Bits/(Pixel*Frame): 0.148
Stream size: 1.61 GiB (76%)
Writing library: x264 core 115 r1937 aa21558
Encoding settings: cabac=1 / ref=3 / deblock=1:-1:-1 / analyse=0x3:0x113 / me=hex / subme=7 / psy=1 / psy_rd=1.00:0.10 / mixed_ref=1 / me_range=16 / chroma_me=1 / trellis=1 / 8x8dct=1 / cqm=0 / deadzone=21,11 / fast_pskip=1 / chroma_qp_offset=-3 / threads=6 / sliced_threads=0 / nr=0 / decimate=1 / interlaced=0 / bluray_compat=0 / constrained_intra=0 / bframes=3 / b_pyramid=2 / b_adapt=1 / b_bias=0 / direct=1 / weightb=1 / open_gop=0 / weightp=2 / keyint=250 / keyint_min=23 / scenecut=40 / intra_refresh=0 / rc_lookahead=40 / rc=2pass / mbtree=1 / bitrate=1386 / ratetol=1.0 / qcomp=0.60 / qpmin=0 / qpmax=69 / qpstep=4 / cplxblur=20.0 / qblur=0.5 / ip_ratio=1.40 / aq=1:1.00

Audio
ID: 2
Format: AC-3
Format/Info: Audio Coding 3
Mode extension: CM (complete main)
Codec ID: A_AC3
Duration: 2h 50mn
Bit rate mode: Constant
Bit rate: 384 Kbps
Channel(s): 6 channels
Channel positions: Front: L C R, Side: L R, LFE
Sampling rate: 48.0 KHz
Bit depth: 16 bits
Compression mode: Lossy
Stream size: 467 MiB (22%)

























Поделиться:




реклама партнёра


Вернуться к началу
 Профиль Отправить личное сообщение  
 
   Похожие торренты   Автор   Торрент   Размер 
В этой теме нет новых непрочитанных сообщений. Лицо со шрамом / Scarface [драма, криминал, 1983] Blu-ray 1080p, Mvo+Sub

salma3

6 | 2

46.2 ГБ

В этой теме нет новых непрочитанных сообщений. Легенда / Legend (Брайан Хелгеленд) [Триллер, драма, криминал, 2015] HDRip, dub [iTunes]

Dracon

1578 | 300

2.05 ГБ

В этой теме нет новых непрочитанных сообщений. Лицо ангела / The Face of an Angel (Майкл Уинтерботтом) [Триллер, 2014] HDRip, Mvo

Dracon

401 | 21

1.36 ГБ

В этой теме нет новых непрочитанных сообщений. Легенда / Legend (Брайан Хелгеленд) [Триллер, драма, криминал, 2015] WEBRip, dub [iTunes]

Dracon

0 | 0

1.46 ГБ

В этой теме нет новых непрочитанных сообщений. Принц / The Prince (Брайан А. Миллер) [2014, Боевик, триллер, криминал, драма, WEB-DLRip] avo

Nickolas3435

79 | 4

748.5 МБ

В этой теме нет новых непрочитанных сообщений. Плохие мальчики / Bad Boys [ Триллер, драма, криминал, 1983] BDRemux 1080p, Mvo+Dvo+Sub

salma3

13 | 6

18.43 ГБ

В этой теме нет новых непрочитанных сообщений. Не смейтесь мне в лицо / Hide Your Smiling Faces (Дэниэл Кэрбон) [Драма, 2013] HDRip, avo

Dracon

106 | 10

1.44 ГБ


Начать новую тему Ответить на тему  [ 1 сообщение ] 




Для Мосгорсуда, Роскомнадзора и рекламодателей:: mosgorsud-torrent[собачка]yandex.ru