Торрент файл
скачать торрент магнет ссылка Добавлен: 20 янв 2012, 22:36
Размер: 2.1 ГБ
Сидеров: 380
Личеров: 14
Автор

СообщениеДобавлено: 20 янв 2012, 22:36 

Не в сети
Супермодератор
Аватара пользователя
Дата регистрации:
11 апр 2010, 18:10
Спасибо: 5963 / 7
Сообщения: 56762
Тринадцать / 13



Перевод: Профессиональный (полное дублирование),субтитры:отсутствуют
Формат: DVDRip-AVC, MKV, H.264, AC3
Страна: США
Жанр: Триллер, драма
Продолжительность: 01:37:00
Режиссер: Гела Баблуани/ Géla Babluani
Год выпуска: 2010

В ролях: Джейсон Стэтхэм. Микки Рурк. Сэм Райли. Рэй Уинстоун. Майкл Шеннон. Александр Скарсгард. Фифти Сент .Дэвид Зайас. Эммануэль Шрики .Габи Хоффманн

Описание:Молодой парень по имени Винс случайно узнает быстрый способ разбогатеть. И, сам того не подозревая, ввязывается в смертельно опасную игру — русскую рулетку. Подпольный тотализатор, мир власти, денег и насилия, где люди убивают людей. В этой игре Винсу выпадает «счастливый» тринадцатый номер. Курок его револьвера уже взведен. С каждым выстрелом все меньше шансов выжить, и все больше хочется жить… Но даже если убьешь ты, это еще не значит, что ты останешься жив.

____ ____

Видео: 1280 x 544 (2:35:1), 23.976 fps, AVC (х264), High@L4.0, ~ 2079Kbps, 0.162 bit/pixel
Аудио: 48 kHz, AC3 Dolby Digital, 3/2 (L,C,R,l,r) + LFE ch, ~384 kbps
Общее
Уникальный идентификатор: 211042810867472053255189386747943226081 (0x9EC55DED240C4C8481A9C292500E8AE1)
Полное имя: K:\РИПЫ\trinadcat_[tfile.ru].mkv
Формат: Matroska
Версия формата: Version 2
Размер файла: 2,10 Гбайт
Продолжительность: 1 ч. 37 м.
Общий поток: 3094 Кбит/сек
Дата кодирования: UTC 2011-09-06 21:58:14
Программа кодирования: mkvmerge v4.9.1 ('Ich will') сборка от Aug 10 2011 09:31:20
Библиотека кодирования: libebml v1.2.1 + libmatroska v1.2.0

Видео
Идентификатор: 1
Формат: AVC
Формат/Информация: Advanced Video Codec
Профиль формата: High@L4.0
Параметр CABAC формата: Да
Параметр ReFrames формата: 8 кадров
Идентификатор кодека: V_MPEG4/ISO/AVC
Продолжительность: 1 ч. 37 м.
Битрейт: 2709 Кбит/сек
Ширина: 1280 пикс.
Высота: 544 пикс.
Соотношение сторон: 2,35:1
Частота кадров: 23,976 кадр/сек
Цветовое пространство: YUV
Подвыборка цветности: 4:2:0
Битовая глубина: 8 бит
Тип развёртки: Прогрессивная
Бит/(Пиксели*Кадры): 0.162
Размер потока: 1,80 Гбайт (86%)
Библиотека кодирования: x264 core 116 r2074 2641b9e
Настройки программы: cabac=1 / ref=8 / deblock=1:-1:-1 / analyse=0x3:0x133 / me=umh / subme=7 / psy=1 / psy_rd=1.00:0.10 / mixed_ref=1 / me_range=16 / chroma_me=1 / trellis=2 / 8x8dct=1 / cqm=0 / deadzone=21,11 / fast_pskip=0 / chroma_qp_offset=-3 / threads=6 / sliced_threads=0 / nr=0 / decimate=1 / interlaced=0 / bluray_compat=0 / constrained_intra=0 / bframes=3 / b_pyramid=2 / b_adapt=2 / b_bias=0 / direct=3 / weightb=1 / open_gop=0 / weightp=2 / keyint=250 / keyint_min=23 / scenecut=40 / intra_refresh=0 / rc_lookahead=50 / rc=2pass / mbtree=1 / bitrate=2709 / ratetol=1.0 / qcomp=0.60 / qpmin=0 / qpmax=69 / qpstep=4 / cplxblur=20.0 / qblur=0.5 / ip_ratio=1.40 / aq=1:1.00

Аудио
Идентификатор: 2
Формат: AC-3
Формат/Информация: Audio Coding 3
Расширение режима: CM (complete main)
Идентификатор кодека: A_AC3
Продолжительность: 1 ч. 37 м.
Вид битрейта: Постоянный
Битрейт: 384 Кбит/сек
Каналы: 6 каналов
Расположение каналов: Front: L C R, Side: L R, LFE
Частота: 48,0 КГц
Битовая глубина: 16 бит
Метод сжатия: С потерями
Размер потока: 267 Мбайт (12%)









Поделиться:




реклама партнёра


Вернуться к началу
 Профиль Отправить личное сообщение  
 
   Похожие торренты   Автор   Торрент   Размер 
В этой теме нет новых непрочитанных сообщений. Тринадцать привидений / Thir13en Ghosts [ужасы, триллер, детектив, 2001] BDRip-AVC, Dub

salma3

19 | 1

2.18 ГБ

В этой теме нет новых непрочитанных сообщений. Тринадцать / Thirteen [драма, биография, 2003] BDRip, Mvo

salma3

14 | 4

1.45 ГБ

В этой теме нет новых непрочитанных сообщений. Последняя воля / Last Will [Триллер, драма, 2010] HDTVRip, Dvo [НТВ+]

salma3

0 | 0

1.37 ГБ

В этой теме нет новых непрочитанных сообщений. Неуправляемый / Unstoppable [Боевик, триллер, драма, 2010] Blu-Ray Remux, Dub+Mvo+Avo+Sub

salma3

15 | 17

33.89 ГБ

В этой теме нет новых непрочитанных сообщений. Расплата / The Debt [триллер, драма, 2010] BDRip 720p, Dub+Sub

salma3

356 | 9

5.53 ГБ

В этой теме нет новых непрочитанных сообщений. Стажер / Kept [триллер, драма, 2001] DVDRip, Dvo

salma3

18 | 2

1.39 ГБ

В этой теме нет новых непрочитанных сообщений. Замёрзшие / Frozen [ужасы, триллер, драма, 2010] BDRip 720p, Dub

salma3

79 | 18

6.01 ГБ


Начать новую тему Ответить на тему  [ 1 сообщение ] 




Для Мосгорсуда, Роскомнадзора и рекламодателей:: mosgorsud-torrent[собачка]yandex.ru