Торрент файл
скачать торрент магнет ссылка Добавлен: 20 янв 2012, 22:34
Размер: 2.1 ГБ
Сидеров: 127
Личеров: 5
Автор

СообщениеДобавлено: 20 янв 2012, 22:34 

Не в сети
Супермодератор
Аватара пользователя
Дата регистрации:
11 апр 2010, 18:10
Спасибо: 5802 / 7
Сообщения: 56779
Неназванный / The Entitled



Перевод: Профессиональный (одноголосый закадровый),субтитры: отсутствуют
Формат: HDRip-AVC, MKV, H.264, AC3
Страна: Канада
Жанр: триллер
Продолжительность: 01:30:00
Режиссер: Аарон Вудли /Aaron Woodley
Год выпуска: 2011

В ролях: Рэй Лиотта, Дастин Миллиган, Кевин Зегерс, Лора Вандервурт, Девон Бостик, Виктор Гарбер, Стивен МакХэтти, Татьяна Маслани, Джон Брегар

Описание:Жизнь Пола Дайнэна переворачивается вверх дном после того, как ради спасения своей семьи он решает похитить трех молодых людей и потребовать за них выкуп. События начинают закручиваться в неконтролируемую спираль как только его заложники начинают вести себя неожиданным образом. А после того, как проливается кровь, весь прекрасный план Пола начинается рассыпаться, как карточный домик, и герой фильма должен постоянно бороться, чтобы быть на шаг впереди своей собственной игры.

____

Видео: 1280 x 528 (2:40:1), 23,976 кадр/сек, AVC (х264), High@L4.0, ~2924Kbps,0.180 bit/pixel
Аудио: 48 kHz, AC3 Dolby Digital, 3/2 (L,C,R,l,r) + LFE ch, ~384 kbps


Автор РИПа:ddimmon22
Общее
Уникальный идентификатор: 198554579854305221665767142022730188799 (0x9560389998253DE1A2CB213770FF87FF)
Полное имя: K:\РИПЫ\the_entitled_[tfile.ru].mkv
Формат: Matroska
Версия формата: Version 2
Размер файла: 2,10 Гбайт
Продолжительность: 1 ч. 30 м.
Общий поток: 3303 Кбит/сек
Дата кодирования: UTC 2011-09-13 23:34:14
Программа кодирования: mkvmerge v4.9.1 ('Ich will') сборка от Aug 10 2011 09:31:20
Библиотека кодирования: libebml v1.2.1 + libmatroska v1.2.0

Видео
Идентификатор: 1
Формат: AVC
Формат/Информация: Advanced Video Codec
Профиль формата: High@L4.0
Параметр CABAC формата: Да
Параметр ReFrames формата: 8 кадров
Идентификатор кодека: V_MPEG4/ISO/AVC
Продолжительность: 1 ч. 30 м.
Битрейт: 2924 Кбит/сек
Ширина: 1280 пикс.
Высота: 528 пикс.
Соотношение сторон: 2,40:1
Частота кадров: 23,976 кадр/сек
Цветовое пространство: YUV
Подвыборка цветности: 4:2:0
Битовая глубина: 8 бит
Тип развёртки: Прогрессивная
Бит/(Пиксели*Кадры): 0.180
Размер потока: 1,81 Гбайт (86%)
Библиотека кодирования: x264 core 116 r2074 2641b9e
Настройки программы: cabac=1 / ref=8 / deblock=1:-1:-1 / analyse=0x3:0x133 / me=umh / subme=7 / psy=1 / psy_rd=1.00:0.10 / mixed_ref=1 / me_range=16 / chroma_me=1 / trellis=2 / 8x8dct=1 / cqm=0 / deadzone=21,11 / fast_pskip=0 / chroma_qp_offset=-3 / threads=6 / sliced_threads=0 / nr=0 / decimate=1 / interlaced=0 / bluray_compat=0 / constrained_intra=0 / bframes=3 / b_pyramid=2 / b_adapt=2 / b_bias=0 / direct=3 / weightb=1 / open_gop=0 / weightp=2 / keyint=250 / keyint_min=23 / scenecut=40 / intra_refresh=0 / rc_lookahead=50 / rc=2pass / mbtree=1 / bitrate=2924 / ratetol=1.0 / qcomp=0.60 / qpmin=0 / qpmax=69 / qpstep=4 / cplxblur=20.0 / qblur=0.5 / ip_ratio=1.40 / aq=1:1.00

Аудио
Идентификатор: 2
Формат: AC-3
Формат/Информация: Audio Coding 3
Расширение режима: CM (complete main)
Идентификатор кодека: A_AC3
Продолжительность: 1 ч. 30 м.
Вид битрейта: Постоянный
Битрейт: 384 Кбит/сек
Каналы: 6 каналов
Расположение каналов: Front: L C R, Side: L R, LFE
Частота: 48,0 КГц
Битовая глубина: 16 бит
Метод сжатия: С потерями
Размер потока: 250 Мбайт (12%)










Поделиться:




реклама партнёра


Вернуться к началу
 Профиль Отправить личное сообщение  
 
   Похожие торренты   Автор   Торрент   Размер 
В этой теме нет новых непрочитанных сообщений. Круг / Circle (Аарон Ханн, Марио Мисионе) [2015, ужасы, фантастика, триллер, драма, HDRip] avo

Nickolas3435

44 | 4

898.95 МБ

В этой теме нет новых непрочитанных сообщений. NOFX - Self-Entitled [2012, Punk Rock, MP3]

PriZraK

0 | 1

69.4 МБ

В этой теме нет новых непрочитанных сообщений. Навес / Canopy (Аарон Уилсон) [2013, Драма, приключения, военный, HDRip] avo

Dracon

1264 | 57

1.48 ГБ

В этой теме нет новых непрочитанных сообщений. Aaron Gillespie - Anthem Song [2011, Alt.Rock, Pop-Rock, MP3]

PriZraK

0 | 1

65.95 МБ

В этой теме нет новых непрочитанных сообщений. Jay Aaron - Inside Out [1990, Melodic Rock,AOR, MP3]

PriZraK

0 | 1

112.24 МБ

В этой теме нет новых непрочитанных сообщений. Lee Aaron - Bodyrock [1989, Hard Rock, MP3]

PriZraK

0 | 1

91.58 МБ

В этой теме нет новых непрочитанных сообщений. Aaron Freeman (Gene Ween) - Gener’s Gone: The Final Demo Recordings of Gene Ween [2009-2011] [2013, Alternative Rock, MP3]

PriZraK

0 | 1

57.43 МБ


Начать новую тему Ответить на тему  [ 1 сообщение ] 




Для Мосгорсуда, Роскомнадзора и рекламодателей:: mosgorsud-torrent[собачка]yandex.ru