Торрент файл
скачать торрент магнет ссылка Добавлен: 20 янв 2012, 22:34
Размер: 2.1 ГБ
Сидеров: 35
Личеров: 9
Автор

СообщениеДобавлено: 20 янв 2012, 22:34 

Не в сети
Супермодератор
Аватара пользователя
Дата регистрации:
11 апр 2010, 18:10
Спасибо: 5927 / 7
Сообщения: 56776
Большой куш / Snatch



Перевод: Профессиональный (многоголосый, закадровый),субтитры: отсутствуют
Формат: HDRip-AVC, MKV, H.264, AC3
Страна: США, Великобритания
Жанр: триллер, криминал
Продолжительность: 01:42:00
Режиссер: Гай Ричи / Guy Ritchie
Год выпуска: 2000

В ролях: Джейсон Стэтхэм, Брэд Питт, Винни Джонс, Бенисио Дель Торо, Джейсон Флеминг, Деннис Фарина, Эд, Уильям Бек, Энди Бекуив, Юэн Бремнер

Описание:Четырехпалый Френки должен был переправить краденный алмаз из Англии в США своему боссу Эви. Но вместо этого герой попадает в эпицентр больших неприятностей. Сделав ставку на подпольном боксерском поединке, Френки попадает в круговорот весьма нежелательных событий.

Вокруг героя и его груза разворачивается сложная интрига с участием множества колоритных персонажей лондонского дна — русского гангстера, троих незадачливых грабителей, хитрого боксера и угрюмого громилы грозного мафиози. Каждый норовит в одиночку сорвать Большой Куш. А кончается все неожиданным и остроумным финалом.


________

Видео: 1344x 728(2:40:1),23,976кадр/сек, AVC (х264),High@L4.0, ~ 2608Kbps, 0.111 bit/pixel
Аудио: 48 kHz, AC3 Dolby Digital, 3/2 (L,C,R,l,r) + LFE ch, ~320 kbps


Автор РИПа:ddimmon22
Общее
Уникальный идентификатор: 211332314906965079568391320090405466723 (0x9EFD1F93D6E0B760A1328DFF14577263)
Полное имя: K:\РИПЫ\snatch_[tfile.ru].mkv
Формат: Matroska
Версия формата: Version 2
Размер файла: 2,10 Гбайт
Продолжительность: 1 ч. 42 м.
Общий поток: 2928 Кбит/сек
Дата кодирования: UTC 2011-09-15 22:33:40
Программа кодирования: mkvmerge v4.9.1 ('Ich will') сборка от Aug 10 2011 09:31:20
Библиотека кодирования: libebml v1.2.1 + libmatroska v1.2.0

Видео
Идентификатор: 1
Формат: AVC
Формат/Информация: Advanced Video Codec
Профиль формата: High@L4.0
Параметр CABAC формата: Да
Параметр ReFrames формата: 8 кадров
Идентификатор кодека: V_MPEG4/ISO/AVC
Продолжительность: 1 ч. 42 м.
Битрейт: 2608 Кбит/сек
Ширина: 1344 пикс.
Высота: 728 пикс.
Соотношение сторон: 2:40:1
Частота кадров: 23,976 кадр/сек
Цветовое пространство: YUV
Подвыборка цветности: 4:2:0
Битовая глубина: 8 бит
Тип развёртки: Прогрессивная
Бит/(Пиксели*Кадры): 0.111
Размер потока: 1,83 Гбайт (87%)
Библиотека кодирования: x264 core 116 r2074 2641b9e
Настройки программы: cabac=1 / ref=8 / deblock=1:-1:-1 / analyse=0x3:0x133 / me=umh / subme=7 / psy=1 / psy_rd=1.00:0.10 / mixed_ref=1 / me_range=16 / chroma_me=1 / trellis=2 / 8x8dct=1 / cqm=0 / deadzone=21,11 / fast_pskip=0 / chroma_qp_offset=-3 / threads=6 / sliced_threads=0 / nr=0 / decimate=1 / interlaced=0 / bluray_compat=0 / constrained_intra=0 / bframes=3 / b_pyramid=2 / b_adapt=2 / b_bias=0 / direct=3 / weightb=1 / open_gop=0 / weightp=2 / keyint=250 / keyint_min=23 / scenecut=40 / intra_refresh=0 / rc_lookahead=50 / rc=2pass / mbtree=1 / bitrate=2608 / ratetol=1.0 / qcomp=0.60 / qpmin=0 / qpmax=69 / qpstep=4 / cplxblur=20.0 / qblur=0.5 / ip_ratio=1.40 / aq=1:1.00

Аудио
Идентификатор: 2
Формат: AC-3
Формат/Информация: Audio Coding 3
Расширение режима: CM (complete main)
Идентификатор кодека: A_AC3
Продолжительность: 1 ч. 42 м.
Вид битрейта: Постоянный
Битрейт: 320 Кбит/сек
Каналы: 6 каналов
Расположение каналов: Front: L C R, Side: L R, LFE
Частота: 48,0 КГц
Битовая глубина: 16 бит
Метод сжатия: С потерями
Размер потока: 235 Мбайт (11%)










Поделиться:




реклама партнёра


Вернуться к началу
 Профиль Отправить личное сообщение  
 
   Похожие торренты   Автор   Торрент   Размер 
В этой теме нет новых непрочитанных сообщений. Я выслежу тебя / I'll Follow You Down (Ричи Мехта) [2013, Ричи Мехта, BDRip 720p] mvo+avo

Nickolas3435

70 | 3

2.2 ГБ

В этой теме нет новых непрочитанных сообщений. Дракула 2000 / Dracula 2000 [ужасы, фэнтези, боевик, триллер, 2000] BDRip 720p, Dub+Sub

salma3

101 | 8

3.83 ГБ

В этой теме нет новых непрочитанных сообщений. Дракула 2000 / Dracula 2000 [ужасы, фэнтези, боевик, триллер, 2000] BDRip 1080p, Dub+Sub

salma3

54 | 14

9.81 ГБ

В этой теме нет новых непрочитанных сообщений. Там, где деньги / Where the Money Is [драма, комедия, криминал, 2000] HDRip, Dvo

salma3

71 | 33

1.45 ГБ

В этой теме нет новых непрочитанных сообщений. Под подозрением / Under Suspicion [драма, триллер, криминал, 2000] DVDRip, Mvo

salma3

101 | 7

1.47 ГБ

В этой теме нет новых непрочитанных сообщений. Уравнитель 2000 / Equalizer 2000 [фантастика, боевик, приключения, 1987] HDRip, Avo

salma3

110 | 14

1.46 ГБ

В этой теме нет новых непрочитанных сообщений. Парни из Эссекса / Essex Boys [Триллер, криминал, 2000] WEB-DL 720p, Mvo+Sub

salma3

153 | 19

3.33 ГБ


Начать новую тему Ответить на тему  [ 1 сообщение ] 




Для Мосгорсуда, Роскомнадзора и рекламодателей:: mosgorsud-torrent[собачка]yandex.ru