Торрент файл
скачать торрент магнет ссылка Добавлен: 20 янв 2012, 22:33
Размер: 2.1 ГБ
Сидеров: 6
Личеров: 5
Автор

СообщениеДобавлено: 20 янв 2012, 22:32 

Не в сети
Супермодератор
Аватара пользователя
Дата регистрации:
11 апр 2010, 18:10
Спасибо: 5799 / 7
Сообщения: 56779
Бритва / Dressed to Kill



Перевод: Профессиональный (многоголосый, закадровый),субтитры: отсутствуют
Формат: HDRip-AVC, MKV, H.264, AC3
Страна: США
Жанр: триллер, детектив
Продолжительность: 01:45:00
Режиссер: Брайан Де Пальма / Brian De Palma
Год выпуска: 1980

В ролях: Майкл Кейн, Энджи Дикинсон, Нэнси Аллен, Кит Гордон, Деннис Франц, Дэвид Маргулис, Кен Бэйкер, Сюзанна Клемм, Брэндон Мэггарт, Амалия Колье

Описание:Она называет себя Бобби — высокая блондинка с ненасытным желанием убивать. Согласно записям доктора Эллиота, Бобби была его пациенткой, но перешла к другому врачу. Острая бритва, которая служит Бобби орудием убийства, была украдена из роскошного кабинета доктора Эллиота в престижном районе Нью-Йорка, в котором он ведет свою успешную психиатрическую практику.

Очередной жертвой Бобби становится Кейт, другая пациентка доктора Эллиота, страдавшая от столь ярких эротических фантазий, что сама порой не могла отделить их от реальности. Лиз, девушка из высшего общества, случайно становится свидетельницей этого преступления, сразу же превратившись в объект преследования для убийцы и в подозреваемую для полиции. Только она сможет пролить свет на тайну высокой блондинки, если, конечно, ей удастся остаться в живых.


________

Видео: 1280x 544 (2:35:1),23,976кадр/сек, AVC (х264),High@L4.0, ~ 2672 Kbps, 0.160 bit/pixel
Аудио: 48 kHz, AC3 Dolby Digital, 2/0 (L,R) 2ch, ~192 kbps


Автор РИПа:ddimmon22
Общее
Уникальный идентификатор: 227152912706227334393654082061955450968 (0xAAE40F4574D58CC198FA00717D13485
Полное имя: K:\РИПЫ\dressed_to_kill_[tfile.ru].mkv
Формат: Matroska
Версия формата: Version 2
Размер файла: 2,10 Гбайт
Продолжительность: 1 ч. 45 м.
Общий поток: 2866 Кбит/сек
Дата кодирования: UTC 2011-09-21 00:55:55
Программа кодирования: mkvmerge v4.9.1 ('Ich will') сборка от Aug 10 2011 09:31:20
Библиотека кодирования: libebml v1.2.1 + libmatroska v1.2.0

Видео
Идентификатор: 1
Формат: AVC
Формат/Информация: Advanced Video Codec
Профиль формата: High@L4.0
Параметр CABAC формата: Да
Параметр ReFrames формата: 8 кадров
Идентификатор кодека: V_MPEG4/ISO/AVC
Продолжительность: 1 ч. 45 м.
Битрейт: 2672 Кбит/сек
Ширина: 1280 пикс.
Высота: 544 пикс.
Соотношение сторон: 2,35:1
Частота кадров: 23,976 кадр/сек
Цветовое пространство: YUV
Подвыборка цветности: 4:2:0
Битовая глубина: 8 бит
Тип развёртки: Прогрессивная
Бит/(Пиксели*Кадры): 0.160
Размер потока: 1,92 Гбайт (91%)
Библиотека кодирования: x264 core 116 r2074 2641b9e
Настройки программы: cabac=1 / ref=8 / deblock=1:-1:-1 / analyse=0x3:0x133 / me=umh / subme=7 / psy=1 / psy_rd=1.00:0.10 / mixed_ref=1 / me_range=16 / chroma_me=1 / trellis=2 / 8x8dct=1 / cqm=0 / deadzone=21,11 / fast_pskip=0 / chroma_qp_offset=-3 / threads=6 / sliced_threads=0 / nr=0 / decimate=1 / interlaced=0 / bluray_compat=0 / constrained_intra=0 / bframes=3 / b_pyramid=2 / b_adapt=2 / b_bias=0 / direct=3 / weightb=1 / open_gop=0 / weightp=2 / keyint=250 / keyint_min=23 / scenecut=40 / intra_refresh=0 / rc_lookahead=50 / rc=2pass / mbtree=1 / bitrate=2672 / ratetol=1.0 / qcomp=0.60 / qpmin=0 / qpmax=69 / qpstep=4 / cplxblur=20.0 / qblur=0.5 / ip_ratio=1.40 / aq=1:1.00

Аудио
Идентификатор: 2
Формат: AC-3
Формат/Информация: Audio Coding 3
Расширение режима: CM (complete main)
Идентификатор кодека: A_AC3
Продолжительность: 1 ч. 45 м.
Вид битрейта: Постоянный
Битрейт: 192 Кбит/сек
Каналы: 2 канала
Расположение каналов: Front: L R
Частота: 48,0 КГц
Битовая глубина: 16 бит
Метод сжатия: С потерями
Размер потока: 144 Мбайт (7%)










Поделиться:




реклама партнёра


Вернуться к началу
 Профиль Отправить личное сообщение  
 
   Похожие торренты   Автор   Торрент   Размер 
В этой теме нет новых непрочитанных сообщений. Бритва / Dressed to Kill [триллер, детектив, 1980] HDRip, Dvo

salma3

24 | 4

1.46 ГБ

В этой теме нет новых непрочитанных сообщений. Убей или умри / Kill or Be Killed [вестерн, ужасы, триллер, детектив, 2015] HDRip, Avo

salma3

77 | 6

1.23 ГБ

В этой теме нет новых непрочитанных сообщений. Странный ребенок / The Godsend [ужасы, драма, детектив, 1980] HDRip, Avo

salma3

95 | 15

1.46 ГБ

В этой теме нет новых непрочитанных сообщений. Во имя мести / Out For a Kill [Боевик, триллер, криминал, 2003] HDRip, Mvo

salma3

13 | 4

1.46 ГБ

В этой теме нет новых непрочитанных сообщений. Список смертников / Kill List [ужасы, триллер, 2011] HDRip, Mvo

salma3

204 | 28

1.46 ГБ

В этой теме нет новых непрочитанных сообщений. Прямо в сердце / Kill Dil [боевик, триллер, драма, 2014] HDRip, Dvo+Sub

salma3

33 | 6

1.46 ГБ

В этой теме нет новых непрочитанных сообщений. Убей или умри / Kill or Be Killed [ужасы, триллер, детектив, вестерн, 2015] WEBDLRip, Mvo

salma3

26 | 1

1.46 ГБ


Начать новую тему Ответить на тему  [ 1 сообщение ] 




Для Мосгорсуда, Роскомнадзора и рекламодателей:: mosgorsud-torrent[собачка]yandex.ru