Торрент файл
скачать торрент магнет ссылка Добавлен: 20 янв 2012, 22:31
Размер: 2.1 ГБ
Сидеров: 18
Личеров: 5
Автор

СообщениеДобавлено: 20 янв 2012, 22:31 

Не в сети
Супермодератор
Аватара пользователя
Дата регистрации:
11 апр 2010, 18:10
Спасибо: 5802 / 7
Сообщения: 56779
Ложное искушение / The Good Shepherd


Перевод: Профессиональный (многоголосый, закадровый), cубтитры: отсутствуют
Формат: HDRip-AVC, MKV, H.264, AC3
Страна: США
Режиссер: Роберт Де Ниро
Жанр: триллер, драма
Продолжительность: 02:47:13
Год выпуска: 2006

В ролях: Мэтт Дэймон, Роберт Де Ниро, Анджелина Джоли, Джо Пеши, Алек Болдуин, Владимир Машков, Кир Дулли, Майкл Гэмбон, Мартина Гедек, Уильям Хёрт

Описание: Эдвард Уилсон, целеустремленный молодой человек, полный идеалов, поступает на службу в OSS. Это решение изменяет не только ход его жизни, но и мировую историю. Уилсон создает самую мощную секретную организацию в мире — ЦРУ.
Он должен вести двойную жизнь, где двуличность — часть тебя. Никто, включая и его жену, и любимого сына, не может заставить Уилсона изменить своим принципам, которые вынуждают его никому не доверять и ради достижения цели принести в жертву все, в том числе и собственную семью...




Видео: 960 x 400 (2:40:1), 23.976 fps, AVC (х264) High@L4.1, ~ 1416 Kbps, 0.154 bit/pixel
Аудио: 48 kHz, AC3 Dolby Digital, 3/2 (L,C,R,l,r) + LFE ch, ~384 kbps


Рип: jeenart


General
Unique ID: 199111308892948065135980007881182955684 (0x95CB7175F7EFE31F9BEA38C0235A48A4)
Complete name: F:\Мои релизы\Все релизы 10\lozhnoe_iskushenie_[tfile.ru].mkv
Format: Matroska
File size: 2.10 GiB
Duration: 2h 47mn
Overall bit rate: 1 801 Kbps
Encoded date: UTC 2011-09-24 09:52:45
Writing application: mkvmerge v4.6.0 ('Still Crazy After All These Years') сборка от Apr1 2011 21:01:49
Writing library: libebml v1.2.0 + libmatroska v1.1.0

Video
ID: 1
Format: AVC
Format/Info: Advanced Video Codec
Format profile: High@L4.1
Format settings, CABAC: Yes
Format settings, ReFrames: 4 frames
Codec ID: V_MPEG4/ISO/AVC
Duration: 2h 47mn
Bit rate: 1 416 Kbps
Width: 960 pixels
Height: 400 pixels
Display aspect ratio: 2.40:1
Frame rate: 24.000 fps
Color space: YUV
Chroma subsampling: 4:2:0
Bit depth: 8 bits
Scan type: Progressive
Bits/(Pixel*Frame): 0.154
Stream size: 1.61 GiB (77%)
Writing library: x264 core 115 r1937 aa21558
Encoding settings: cabac=1 / ref=3 / deblock=1:-1:-1 / analyse=0x3:0x113 / me=hex / subme=7 / psy=1 / psy_rd=1.00:0.10 / mixed_ref=1 / me_range=16 / chroma_me=1 / trellis=1 / 8x8dct=1 / cqm=0 / deadzone=21,11 / fast_pskip=1 / chroma_qp_offset=-3 / threads=6 / sliced_threads=0 / nr=0 / decimate=1 / interlaced=0 / bluray_compat=0 / constrained_intra=0 / bframes=3 / b_pyramid=2 / b_adapt=1 / b_bias=0 / direct=1 / weightb=1 / open_gop=0 / weightp=2 / keyint=250 / keyint_min=23 / scenecut=40 / intra_refresh=0 / rc_lookahead=40 / rc=2pass / mbtree=1 / bitrate=1416 / ratetol=1.0 / qcomp=0.60 / qpmin=0 / qpmax=69 / qpstep=4 / cplxblur=20.0 / qblur=0.5 / ip_ratio=1.40 / aq=1:1.00

Audio
ID: 2
Format: AC-3
Format/Info: Audio Coding 3
Mode extension: CM (complete main)
Codec ID: A_AC3
Duration: 2h 47mn
Bit rate mode: Constant
Bit rate: 384 Kbps
Channel(s): 6 channels
Channel positions: Front: L C R, Side: L R, LFE
Sampling rate: 48.0 KHz
Bit depth: 16 bits
Compression mode: Lossy
Stream size: 459 MiB (21%)













Поделиться:




реклама партнёра


Вернуться к началу
 Профиль Отправить личное сообщение  
 
   Похожие торренты   Автор   Торрент   Размер 
В этой теме нет новых непрочитанных сообщений. Ложное искушение / The Good Shepherd [триллер, 2006] DVDRip, Dub

salma3

2 | 3

1.37 ГБ

В этой теме нет новых непрочитанных сообщений. Ложное обвинение / Приговор / Conviction [01x01-08 из 13] [драма, 2016] WEB-DLRip, Mvo [NewStudio]

salma3

59 | 73

3.77 ГБ

В этой теме нет новых непрочитанных сообщений. Ложное обвинение / Приговор / Conviction [01x01-08 из 13] [драма, 2016] WEB-DL 720p, Mvo [NewStudio]

salma3

22 | 43

11.6 ГБ

В этой теме нет новых непрочитанных сообщений. Искушение / Temptation [Триллер, 1994] DVDRip, Avo

salma3

135 | 32

1.46 ГБ

В этой теме нет новых непрочитанных сообщений. Хороший сосед / The Good Neighbor [триллер, 2016] HDRip, Avo

marya111

23 | 7

1.51 ГБ

В этой теме нет новых непрочитанных сообщений. Дом добра и зла / House of Good and Evil [Ужасы, Триллер, 2013] HDRip, Mvo

Dracon

555 | 29

1.46 ГБ

В этой теме нет новых непрочитанных сообщений. Хорошее убийство / Good Kill (Эндрю Никкол) [триллер, 2014] HDRip, Mvo

Dracon

3414 | 158

1.45 ГБ


Начать новую тему Ответить на тему  [ 1 сообщение ] 




Для Мосгорсуда, Роскомнадзора и рекламодателей:: mosgorsud-torrent[собачка]yandex.ru