Торрент файл
скачать торрент магнет ссылка Добавлен: 20 янв 2012, 22:30
Размер: 2.1 ГБ
Сидеров: 16
Личеров: 5
Автор

СообщениеДобавлено: 20 янв 2012, 22:30 

Не в сети
Супермодератор
Аватара пользователя
Дата регистрации:
11 апр 2010, 18:10
Спасибо: 5802 / 7
Сообщения: 56779
Перелом / Fracture



Перевод: Профессиональный (полное дублирование),субтитры: отсутствуют
Формат: HDRip-AVC, MKV, H.264, AC3
Страна: США, Германия
Жанр: триллер, драма, криминал, детектив
Продолжительность: 01:53:00
Режиссер: Грегори Хоблит / Gregory Hoblit
Год выпуска: 2007

В ролях: Энтони Хопкинс, Райан Гослинг, Дэвид Стрэтэйрн, Розамунд Пайк, Эмбет Дэвидц, Билли Бёрк, Клифф Кёртис, Фиона Шоу, Боб Гантон, Джош Стэмберг

Описание:Ассистент окружного прокурора оказывается втянутым в хитроумную игру в «кошки-мышки» человеком, который пытался убить свою жену, но избежал тюремного заключения благодаря нелепой бюрократической ошибке.

________

Видео: 1280x 544 (2,35:1),23,976 кадр/сек, AVC (х264),High@L4.0, ~2268Kbps, 0.136 bit/pixel
Аудио: 48 kHz, AC3 Dolby Digital, 3/2 (L,C,R,l,r) + LFE ch, ~384 kbps


Автор РИПа:ddimmon22
Общее
Уникальный идентификатор: 217016651742681639321860930530015546783 (0xA343E30577DE7AB0971BD87780A18D9F)
Полное имя: K:\РИПЫ\fracture_[tfile.ru].mkv
Формат: Matroska
Версия формата: Version 2
Размер файла: 2,10 Гбайт
Продолжительность: 1 ч. 53 м.
Общий поток: 2653 Кбит/сек
Дата кодирования: UTC 2011-09-28 08:28:56
Программа кодирования: mkvmerge v4.9.1 ('Ich will') сборка от Aug 10 2011 09:31:20
Библиотека кодирования: libebml v1.2.1 + libmatroska v1.2.0

Видео
Идентификатор: 1
Формат: AVC
Формат/Информация: Advanced Video Codec
Профиль формата: High@L4.0
Параметр CABAC формата: Да
Параметр ReFrames формата: 8 кадров
Идентификатор кодека: V_MPEG4/ISO/AVC
Продолжительность: 1 ч. 53 м.
Битрейт: 2268 Кбит/сек
Ширина: 1280 пикс.
Высота: 544 пикс.
Соотношение сторон: 2,35:1
Частота кадров: 23,976 кадр/сек
Цветовое пространство: YUV
Подвыборка цветности: 4:2:0
Битовая глубина: 8 бит
Тип развёртки: Прогрессивная
Бит/(Пиксели*Кадры): 0.136
Размер потока: 1,76 Гбайт (84%)
Библиотека кодирования: x264 core 116 r2074 2641b9e
Настройки программы: cabac=1 / ref=8 / deblock=1:-1:-1 / analyse=0x3:0x133 / me=umh / subme=7 / psy=1 / psy_rd=1.00:0.10 / mixed_ref=1 / me_range=16 / chroma_me=1 / trellis=2 / 8x8dct=1 / cqm=0 / deadzone=21,11 / fast_pskip=0 / chroma_qp_offset=-3 / threads=6 / sliced_threads=0 / nr=0 / decimate=1 / interlaced=0 / bluray_compat=0 / constrained_intra=0 / bframes=3 / b_pyramid=2 / b_adapt=2 / b_bias=0 / direct=3 / weightb=1 / open_gop=0 / weightp=2 / keyint=250 / keyint_min=23 / scenecut=40 / intra_refresh=0 / rc_lookahead=50 / rc=2pass / mbtree=1 / bitrate=2268 / ratetol=1.0 / qcomp=0.60 / qpmin=0 / qpmax=69 / qpstep=4 / cplxblur=20.0 / qblur=0.5 / ip_ratio=1.40 / aq=1:1.00

Аудио
Идентификатор: 2
Формат: AC-3
Формат/Информация: Audio Coding 3
Расширение режима: CM (complete main)
Идентификатор кодека: A_AC3
Продолжительность: 1 ч. 53 м.
Вид битрейта: Постоянный
Битрейт: 384 Кбит/сек
Каналы: 6 каналов
Расположение каналов: Front: L C R, Side: L R, LFE
Частота: 48,0 КГц
Битовая глубина: 16 бит
Метод сжатия: С потерями
Размер потока: 312 Мбайт (14%)










Поделиться:




реклама партнёра


Вернуться к началу
 Профиль Отправить личное сообщение  
 
   Похожие торренты   Автор   Торрент   Размер 
В этой теме нет новых непрочитанных сообщений. Перелом / Fracture [Триллер, драма, криминал, 2007] BDRip 720p, Dub+Sub

salma3

208 | 11

4.36 ГБ

В этой теме нет новых непрочитанных сообщений. Открытый перелом / Compound Fracture [ужасы, триллер, 2013] WEB-DL 720p, dvo

Dracon

27 | 5

2.71 ГБ

В этой теме нет новых непрочитанных сообщений. Открытый перелом / Compound Fracture [ужасы, триллер, 2013] WEB-DLRip, dvo

Dracon

109 | 7

1.46 ГБ

В этой теме нет новых непрочитанных сообщений. Открытый перелом / Compound Fracture (Энтони Дж. Рикерт-Эпстин) [2013, ужасы, триллер, WEB-DLRip] DVO

Nickolas3435

13 | 2

1.46 ГБ

В этой теме нет новых непрочитанных сообщений. В долине Эла / In the Valley of Elah [триллер, драма, криминал, детектив, 2007] HDRip, Dub

salma3

312 | 19

1.45 ГБ

В этой теме нет новых непрочитанных сообщений. Убийство / Forbrydelsen / 1-3 сезоны 1-40 серии из 40 [триллер, драма, криминал, детектив, 2007] HDRip, Mvo [Первый / Baibako]

salma3

2 | 4

34.26 ГБ

В этой теме нет новых непрочитанных сообщений. 24 часа / 24 [S07] [Драма, Криминал, Детектив, 2007] HDRip, Mvo [NovaFilm]

salma3

9 | 7

8.36 ГБ


Начать новую тему Ответить на тему  [ 1 сообщение ] 




Для Мосгорсуда, Роскомнадзора и рекламодателей:: mosgorsud-torrent[собачка]yandex.ru