Торрент файл
скачать торрент магнет ссылка Добавлен: 20 янв 2012, 22:29
Размер: 1.45 ГБ
Сидеров: 13
Личеров: 6
Автор

СообщениеДобавлено: 20 янв 2012, 22:29 

Не в сети
Супермодератор
Аватара пользователя
Дата регистрации:
11 апр 2010, 18:10
Спасибо: 5802 / 7
Сообщения: 56779
Не говори ни слова / Don't Say a Word


Перевод: Профессиональный (полное дублирование), cубтитры: отсутствуют
Формат: HDRip-AVC, MKV, H.264, AC3
Страна: США, Австралия
Режиссер: Гэри Флидер
Жанр: триллер, драма, криминал
Продолжительность: 01:53:35
Год выпуска: 2001

В ролях: Майкл Дуглас, Шон Бин, Бриттани Мерфи, Скай МакКоул Бартусяк, Гай Торри, Дженнифер Эспозито, Шоун Дойл, Виктор Арго, Конрад Гуд, Пол Шульц

Описание: «Вы хотите того же, что они?... Я никогда не скажу... никому из вас» - вот первые слова Элизабет, обращенные к знаменитому психиатру Натану Конраду. Элизабет, замкнутая в себе девушка, страдающая припадками немотивированной агрессии, причину которой никто до сих пор не смог объяснить и, тем более, устранить.
В Натане просыпается профессиональный интерес и он принимается за лечение, но проходит совсем немного времени, и он узнает, что Элизабет и ее болезнь каким-то таинственным образом связаны с опасностью, грозящей ему и его семье. Дочь психиатра похищают самым бесцеремонным образом, а за ним и его женой устанавливают круглосуточное наблюдение. Чтобы спасти дочь, Натану необходимо расшифровать шестизначный код, спрятанный в затуманенном сознании его пациентки
.



Видео: 960 x 408 (2:35:1), 23.976 fps, AVC (х264) High@L4.1, ~ 1448 Kbps, 0.154 bit/pixel
Аудио: 48 kHz, AC3 Dolby Digital, 3/2 (L,C,R,l,r) + LFE ch, ~384 kbps


Рип: jeenart

General
Unique ID: 185225058777936472041234030860942188313 (0x8B590C7898480BEF8E1C748992F41F19)
Complete name: F:\Мои релизы\Все релизы 10\ne_govori_ni_slova_[tfile.ru].mkv
Format: Matroska
File size: 1.45 GiB
Duration: 1h 53mn
Overall bit rate: 1 833 Kbps
Encoded date: UTC 2011-09-29 16:04:02
Writing application: mkvmerge v4.6.0 ('Still Crazy After All These Years') сборка от Apr1 2011 21:01:49
Writing library: libebml v1.2.0 + libmatroska v1.1.0

Video
ID: 1
Format: AVC
Format/Info: Advanced Video Codec
Format profile: High@L4.1
Format settings, CABAC: Yes
Format settings, ReFrames: 4 frames
Codec ID: V_MPEG4/ISO/AVC
Duration: 1h 53mn
Bit rate: 1 448 Kbps
Width: 960 pixels
Height: 408 pixels
Display aspect ratio: 2.35:1
Frame rate: 23.976 fps
Color space: YUV
Chroma subsampling: 4:2:0
Bit depth: 8 bits
Scan type: Progressive
Bits/(Pixel*Frame): 0.154
Stream size: 1.12 GiB (77%)
Writing library: x264 core 115 r1937 aa21558
Encoding settings: cabac=1 / ref=3 / deblock=1:-1:-1 / analyse=0x3:0x113 / me=hex / subme=7 / psy=1 / psy_rd=1.00:0.10 / mixed_ref=1 / me_range=16 / chroma_me=1 / trellis=1 / 8x8dct=1 / cqm=0 / deadzone=21,11 / fast_pskip=1 / chroma_qp_offset=-3 / threads=6 / sliced_threads=0 / nr=0 / decimate=1 / interlaced=0 / bluray_compat=0 / constrained_intra=0 / bframes=3 / b_pyramid=2 / b_adapt=1 / b_bias=0 / direct=1 / weightb=1 / open_gop=0 / weightp=2 / keyint=250 / keyint_min=23 / scenecut=40 / intra_refresh=0 / rc_lookahead=40 / rc=2pass / mbtree=1 / bitrate=1448 / ratetol=1.0 / qcomp=0.60 / qpmin=0 / qpmax=69 / qpstep=4 / cplxblur=20.0 / qblur=0.5 / ip_ratio=1.40 / aq=1:1.00

Audio
ID: 2
Format: AC-3
Format/Info: Audio Coding 3
Mode extension: CM (complete main)
Codec ID: A_AC3
Duration: 1h 53mn
Bit rate mode: Constant
Bit rate: 384 Kbps
Channel(s): 6 channels
Channel positions: Front: L C R, Side: L R, LFE
Sampling rate: 48.0 KHz
Bit depth: 16 bits
Compression mode: Lossy
Stream size: 312 MiB (21%)













Поделиться:




реклама партнёра


Вернуться к началу
 Профиль Отправить личное сообщение  
 
   Похожие торренты   Автор   Торрент   Размер 
В этой теме нет новых непрочитанных сообщений. Не говори ни слова / Don't Say a Word [Триллер, драма, криминал, 2001] Blu-ray Remux 1080p, Dub+Mvo+Sub

salma3

33 | 9

37.54 ГБ

В этой теме нет новых непрочитанных сообщений. 15 минут славы / 15 Minutes [Боевик, триллер, драма, криминал, 2001] HDRip, Mvo

salma3

23 | 3

1.46 ГБ

В этой теме нет новых непрочитанных сообщений. 15 минут славы / 15 Minutes [боевик, триллер, драма, криминал, 2001] HDRip-AVC, Dub

salma3

165 | 69

745.89 МБ

В этой теме нет новых непрочитанных сообщений. В спальне / In the Bedroom [драма, криминал, 2001] HDRip, Mvo

salma3

4 | 3

1.45 ГБ

В этой теме нет новых непрочитанных сообщений. Плохие слова / Bad Words [Комедия, 2013] HDRip, avo

Dracon

248 | 6

1.38 ГБ

В этой теме нет новых непрочитанных сообщений. Плохие слова / Bad Words [Комедия, 2013] HDRip, dub [Чистый звук]

Dracon

1058 | 10

1.37 ГБ

В этой теме нет новых непрочитанных сообщений. Голос улиц / Straight Outta Compton (Ф. Гэри Грей) [драма, биография, музыка, 2015] HDRip, Dub [iTunes]

Dracon

6073 | 288

2.05 ГБ


Начать новую тему Ответить на тему  [ 1 сообщение ] 




Для Мосгорсуда, Роскомнадзора и рекламодателей:: mosgorsud-torrent[собачка]yandex.ru