Торрент файл
скачать торрент магнет ссылка Добавлен: 20 янв 2012, 22:27
Размер: 1.42 ГБ
Сидеров: 18
Личеров: 7
Автор

СообщениеДобавлено: 20 янв 2012, 22:27 

Не в сети
Супермодератор
Аватара пользователя
Дата регистрации:
11 апр 2010, 18:10
Спасибо: 5802 / 7
Сообщения: 56779
С меня хватит / Enough


Перевод: Авторский (одноголосый) Юрий Живов, cубтитры: отсутствуют
Формат: DVDRip-AVC, MKV, H.264, AC3
Страна: США
Режиссер: Майкл Эптед
Жанр: триллер, драма
Продолжительность: 01:55:08
Год выпуска: 2002

В ролях: Дженнифер Лопез, Билл Кэмпбелл, Тесса Аллен, Джульетт Льюис, Дэн Футтерман, Ной Уайл, Фред Уорд, Джанет Кэрролл, Билл Коббс, Кристофер Мехер

Описание: Жизнь официантки Слим коренным образом меняется, когда она встречает богатого незнакомца Митча. Они влюбляются, женятся, покупают красивый домик и у них рождается дочка. Но восхитительной счастливой новой жизни Слим тоже приходит конец.
Ее муж далеко не совершенство, и Слим узнает о его изменах. Оскорбленная поведением мужа, Слим пытается убежать от него, а ожесточившийся Митч теперь представляет смертельную угрозу ей и ее пятилетней дочери. Скрываясь от мужа, Слим решает принять серьезные меры. Она прячет дочь, а сама меняется морально и физически, намереваясь показать Митчу, что с нее довольно…




Видео: 896 x 376 (2:35:1), 25.000 fps, AVC (х264) High@L4.1, ~ 1450 Kbps, 0.172 bit/pixel
Аудио: 48 kHz, AC3 Dolby Digital, 3/2 (L,C,R,l,r) + LFE ch, ~384 kbps


Рип: jeenart

General
Unique ID: 249798573042815114402271570828453278084 (0xBBED7487416C085685069003A698F184)
Complete name: F:\Мои релизы\Все релизы 10\enough_[tfile.ru].mkv
Format: Matroska
File size: 1.42 GiB
Duration: 1h 50mn
Overall bit rate: 1 835 Kbps
Encoded date: UTC 2011-10-05 15:18:01
Writing application: mkvmerge v4.6.0 ('Still Crazy After All These Years') сборка от Apr1 2011 21:01:49
Writing library: libebml v1.2.0 + libmatroska v1.1.0

Video
ID: 1
Format: AVC
Format/Info: Advanced Video Codec
Format profile: High@L4.1
Format settings, CABAC: Yes
Format settings, ReFrames: 4 frames
Format settings, GOP: M=4, N=32
Codec ID: V_MPEG4/ISO/AVC
Duration: 1h 50mn
Bit rate: 1 450 Kbps
Width: 896 pixels
Height: 376 pixels
Display aspect ratio: 2.35:1
Frame rate: 25.000 fps
Color space: YUV
Chroma subsampling: 4:2:0
Bit depth: 8 bits
Scan type: Progressive
Bits/(Pixel*Frame): 0.172
Stream size: 1.09 GiB (77%)
Writing library: x264 core 115 r1937 aa21558
Encoding settings: cabac=1 / ref=3 / deblock=1:-1:-1 / analyse=0x3:0x113 / me=hex / subme=7 / psy=1 / psy_rd=1.00:0.10 / mixed_ref=1 / me_range=16 / chroma_me=1 / trellis=1 / 8x8dct=1 / cqm=0 / deadzone=21,11 / fast_pskip=1 / chroma_qp_offset=-3 / threads=6 / sliced_threads=0 / nr=0 / decimate=1 / interlaced=0 / bluray_compat=0 / constrained_intra=0 / bframes=3 / b_pyramid=2 / b_adapt=1 / b_bias=0 / direct=1 / weightb=1 / open_gop=0 / weightp=2 / keyint=250 / keyint_min=25 / scenecut=40 / intra_refresh=0 / rc_lookahead=40 / rc=2pass / mbtree=1 / bitrate=1450 / ratetol=1.0 / qcomp=0.60 / qpmin=0 / qpmax=69 / qpstep=4 / cplxblur=20.0 / qblur=0.5 / ip_ratio=1.40 / aq=1:1.00

Audio
ID: 2
Format: AC-3
Format/Info: Audio Coding 3
Mode extension: CM (complete main)
Codec ID: A_AC3
Duration: 1h 50mn
Bit rate mode: Constant
Bit rate: 384 Kbps
Channel(s): 6 channels
Channel positions: Front: L C R, Side: L R, LFE
Sampling rate: 48.0 KHz
Bit depth: 16 bits
Compression mode: Lossy
Stream size: 304 MiB (21%)















Поделиться:




реклама партнёра


Вернуться к началу
 Профиль Отправить личное сообщение  
 
   Похожие торренты   Автор   Торрент   Размер 
В этой теме нет новых непрочитанных сообщений. Мастера секса / Masters of Sex [S01] (Майкл Эптед, Майкл Диннер, Дженнифер Гетцингер, Фил Абрахам, Адам Дэвидсон, Тим Файвелл) [Драма, экранизация, 2013] HDTVRip, WEB-DLRip [BaibaKo]

Dracon

80 | 24

9.76 ГБ

В этой теме нет новых непрочитанных сообщений. Хватит играть в видеоигры лучше отсоси [2014 г., Amateur, CamRip]

Dievas

14 | 2

54.68 МБ

В этой теме нет новых непрочитанных сообщений. Глаз / Gin gwai / The Eye [Ужасы, триллер, драма, 2002] DVDRip, Mvo

salma3

28 | 2

1.37 ГБ

В этой теме нет новых непрочитанных сообщений. Поединок / Poolhall Junkies [триллер, драма, 2002] DVDRip-AVC, Dvo

salma3

114 | 39

2.39 ГБ

В этой теме нет новых непрочитанных сообщений. Дикий Мессия / Savage Messiah [Триллер, драма, 2002] DVDRip, Dub

salma3

79 | 5

1.45 ГБ

В этой теме нет новых непрочитанных сообщений. Сияние / The Glow [Ужасы, триллер, драма, детектив, 2002] DVDRip, Mvo

salma3

148 | 21

1.46 ГБ

В этой теме нет новых непрочитанных сообщений. Виртуоз / The Piano Player [боевик, триллер, драма, криминал, 2002] DVDRip, Mvo

salma3

134 | 3

1.36 ГБ


Начать новую тему Ответить на тему  [ 1 сообщение ] 




Для Мосгорсуда, Роскомнадзора и рекламодателей:: mosgorsud-torrent[собачка]yandex.ru