Торрент файл
скачать торрент магнет ссылка Добавлен: 20 янв 2012, 22:25
Размер: 1.36 ГБ
Сидеров: 22
Личеров: 8
Автор

СообщениеДобавлено: 20 янв 2012, 22:25 

Не в сети
Супермодератор
Аватара пользователя
Дата регистрации:
11 апр 2010, 18:10
Спасибо: 5960 / 7
Сообщения: 56765
[b]Захват / Secuestrados[/b]

Перевод: Профессиональный (полное дублирование) R5, cубтитры:отсутствуют

Формат: HDRip, AVI, XviD, AC3

Страна: Франция, Испания

Режиссер: Мигель Анхель Вивас

Жанр: триллер, криминал

Продолжительность: 01:21:08

Год выпуска: 2010

В ролях: Гильермо Барриентос, Дритан Биба, Фернандо Кайо, Сезар Диаз, Мартин Кюипер, Мануэла Веллес, Ана Вагенер

Описание: Фильм снят с помощью достаточно редкого режиссерского приема — длинного кадра. Когда все происходит на экране как в жизни, без монтажа. За весь фильм сменяются всего двенадцать кадров. В реальном времени зрители переживают самую страшную ночь в жизни главных героев.

Полтора часа их жизни. Одной ночи. Смогут ли они спастись? И какую цену заплатят за свободу? Развязка наступит еще до рассвета.


[/field]

Видео: 720x304 (2.37:1), 25 fps, XviD build 50 ~1689 kbps avg, 0.31 bit/pixel

Аудио #1: Русский: 48 kHz, AC3 Dolby Digital, 3/2 (L,C,R,l,r) + LFE ch, ~448 kbps [Профессиональный (полное дублирование)]
Аудио #2: Испанский: 48 kHz, MPEG Layer 3, 2 ch, ~256.00 kbps avg [Оригинал]

С Е М П Л

Доп. информация: Премьера (РФ) 18 августа 2011, «Кинопром»

General
Complete name: E:\zahvat_[tfile.ru].avi
Format: AVI
Format/Info: Audio Video Interleave
File size: 1.36 GiB
Duration: 1h 21mn
Overall bit rate: 2 409 Kbps
Writing application: VirtualDubMod 1.5.10.3 | (build 2550/release)
Writing library: VirtualDubMod build 2550/release

Video
ID: 0
Format: MPEG-4 Visual
Format profile: Advanced Simple@L5
Format settings, BVOP: 2
Format settings, QPel: No
Format settings, GMC: No warppoints
Format settings, Matrix: Default (MPEG)
Codec ID: XVID
Codec ID/Hint: XviD
Duration: 1h 21mn
Bit rate: 1 690 Kbps
Width: 720 pixels
Height: 304 pixels
Display aspect ratio: 2.35:1
Frame rate: 25.000 fps
Color space: YUV
Chroma subsampling: 4:2:0
Bit depth: 8 bits
Scan type: Progressive
Compression mode: Lossy
Bits/(Pixel*Frame): 0.309
Stream size: 981 MiB (70%)
Writing library: XviD 1.2.1 (UTC 2008-12-04)

Audio #1
ID: 1
Format: AC-3
Format/Info: Audio Coding 3
Mode extension: CM (complete main)
Codec ID: 2000
Duration: 1h 21mn
Bit rate mode: Constant
Bit rate: 448 Kbps
Channel(s): 6 channels
Channel positions: Front: L C R, Side: L R, LFE
Sampling rate: 48.0 KHz
Bit depth: 16 bits
Compression mode: Lossy
Delay relative to video: 8ms
Stream size: 260 MiB (19%)
Alignment: Split accross interleaves
Interleave, duration: 40 ms (1.00 video frame)
Interleave, preload duration: 500 ms

Audio #2
ID: 2
Format: MPEG Audio
Format version: Version 1
Format profile: Layer 3
Mode: Joint stereo
Codec ID: 55
Codec ID/Hint: MP3
Duration: 1h 21mn
Bit rate mode: Constant
Bit rate: 256 Kbps
Channel(s): 2 channels
Sampling rate: 48.0 KHz
Compression mode: Lossy
Stream size: 149 MiB (11%)
Alignment: Aligned on interleaves
Interleave, duration: 40 ms (1.00 video frame)
Interleave, preload duration: 504 ms
Writing library: LAME3.98 (alpha)

















Поделиться:




реклама партнёра


Вернуться к началу
 Профиль Отправить личное сообщение  
 
   Похожие торренты   Автор   Торрент   Размер 
В этой теме нет новых непрочитанных сообщений. Добро пожаловать в Гармонию / Extinction (Мигель Анхель Вивас) [Ужасы, фантастика, драма, 2015] WEB-DLRip, Mvo

Dracon

90 | 4

1.37 ГБ

В этой теме нет новых непрочитанных сообщений. Добро пожаловать в Гармонию / Extinction (Мигель Анхель Вивас) [Ужасы, фантастика, драма, 2015] WEB-DLRip, Mvo

Dracon

7 | 2

2.05 ГБ

В этой теме нет новых непрочитанных сообщений. Добро пожаловать в Гармонию / Extinction (Мигель Анхель Вивас) [Ужасы, фантастика, драма, 2015] WEB-DL 720p, Mvo [iTunes]

Dracon

671 | 17

3.73 ГБ

В этой теме нет новых непрочитанных сообщений. Захват в Северном море / North Sea Hijack [боевик, триллер, приключения, 1979] HDRip, dvo

salma3

30 | 2

1.45 ГБ

В этой теме нет новых непрочитанных сообщений. Честь и ярость 2: Враждебный захват / Rage and Honor II [боевик, триллер, драма, криминал, 1993] DVDRip, Mvo [Первый канал]

salma3

81 | 25

1.46 ГБ

В этой теме нет новых непрочитанных сообщений. Захват / The Strike [драма, комедия, криминал, 2016] WEBDLRip, Mvo

salma3

62 | 12

1.37 ГБ

В этой теме нет новых непрочитанных сообщений. Захват в раю / TripFall [Триллер, 2000] DVDRip, Mvo

salma3

62 | 4

1.45 ГБ


Начать новую тему Ответить на тему  [ 1 сообщение ] 




Для Мосгорсуда, Роскомнадзора и рекламодателей:: mosgorsud-torrent[собачка]yandex.ru