Торрент файл
скачать торрент магнет ссылка Добавлен: 20 янв 2012, 22:24
Размер: 2.1 ГБ
Сидеров: 0
Личеров: 6
Автор

СообщениеДобавлено: 20 янв 2012, 22:24 

Не в сети
Супермодератор
Аватара пользователя
Дата регистрации:
11 апр 2010, 18:10
Спасибо: 5960 / 7
Сообщения: 56765
Город на границе/ Bordertown



Перевод: Профессиональный (многоголосый, закадровый).субтитры: отсутствуют
Формат: HDRip-AVC, MKV, H.264, AC3
Страна: США
Жанр: триллер, драма, криминал
Продолжительность: 01:52:00
Режиссер: Грегори Нава / Gregory Nava
Год выпуска: 2006

В ролях: Дженнифер Лопез,Антонио Бандерас,Мартин Шин, Дебрианна Мансини, Рэндолл Батинкофф, Гонсало Мауро Монтьель Агирр, Майя Запата, Иринео Альварез, Рене Ривера

Описание:История репортерши американской газеты Чикаго Сентинел по имени Лорен, чьим очередным редакционным заданием становится коммандировка в мексиканский приграничный городок Хуарез, где она должна будет провести собственное расследование серии нераскрытых убийств женщин — работниц фабрик, произошедших по всей стране.

В ходе расследования Лорен узнает, что счет жертв идет уже на сотни. Чтобы узнать об этой ситуации побольше, она решает войти в доверие в работницам местной фабрики, что в последствии подвергает ее собственную жизнь опасности.


________

Видео: 1264 x 704 (1:79:5),23,976 кадр/сек, AVC (х264), High@L3.1, ~2301 Kbps, 0.108 bit/pixel
Аудио: 48 kHz, AC3 Dolby Digital, 3/2 (L,C,R,l,r) + LFE ch, ~384 kbps


Автор РИПа:ddimmon22
Общее
Уникальный идентификатор: 184686437589066271894596180787240895128 (0x8AF150656AB85ABD87A155AE3200029
Полное имя: I:\oktzbr rupu\bordertown_[tfile.ru].mkv
Формат: Matroska
Версия формата: Version 2
Размер файла: 2,10 Гбайт
Продолжительность: 1 ч. 52 м.
Общий поток: 2686 Кбит/сек
Дата кодирования: UTC 2011-10-11 15:48:33
Программа кодирования: mkvmerge v4.9.1 ('Ich will') сборка от Aug 10 2011 09:31:20
Библиотека кодирования: libebml v1.2.1 + libmatroska v1.2.0

Видео
Идентификатор: 1
Формат: AVC
Формат/Информация: Advanced Video Codec
Профиль формата: High@L3.1
Параметр CABAC формата: Да
Параметр ReFrames формата: 4 кадра
Идентификатор кодека: V_MPEG4/ISO/AVC
Продолжительность: 1 ч. 52 м.
Битрейт: 2301 Кбит/сек
Ширина: 1264 пикс.
Высота: 704 пикс.
Соотношение сторон: 16:9
Частота кадров: 23,976 кадр/сек
Цветовое пространство: YUV
Подвыборка цветности: 4:2:0
Битовая глубина: 8 бит
Тип развёртки: Прогрессивная
Бит/(Пиксели*Кадры): 0.108
Размер потока: 1,76 Гбайт (84%)
Библиотека кодирования: x264 core 116 r2074 2641b9e
Настройки программы: cabac=1 / ref=3 / deblock=1:0:0 / analyse=0x3:0x113 / me=hex / subme=7 / psy=1 / psy_rd=1.00:0.00 / mixed_ref=1 / me_range=16 / chroma_me=1 / trellis=1 / 8x8dct=1 / cqm=0 / deadzone=21,11 / fast_pskip=1 / chroma_qp_offset=-2 / threads=6 / sliced_threads=0 / nr=0 / decimate=1 / interlaced=0 / bluray_compat=0 / constrained_intra=0 / bframes=3 / b_pyramid=2 / b_adapt=1 / b_bias=0 / direct=1 / weightb=1 / open_gop=0 / weightp=2 / keyint=250 / keyint_min=23 / scenecut=40 / intra_refresh=0 / rc_lookahead=40 / rc=2pass / mbtree=1 / bitrate=2301 / ratetol=1.0 / qcomp=0.60 / qpmin=0 / qpmax=69 / qpstep=4 / cplxblur=20.0 / qblur=0.5 / ip_ratio=1.40 / aq=1:1.00

Аудио
Идентификатор: 2
Формат: AC-3
Формат/Информация: Audio Coding 3
Расширение режима: CM (complete main)
Идентификатор кодека: A_AC3
Продолжительность: 1 ч. 52 м.
Вид битрейта: Постоянный
Битрейт: 384 Кбит/сек
Каналы: 6 каналов
Расположение каналов: Front: L C R, Side: L R, LFE
Частота: 48,0 КГц
Битовая глубина: 16 бит
Метод сжатия: С потерями
Размер потока: 308 Мбайт (14%)












Поделиться:




реклама партнёра


Вернуться к началу
 Профиль Отправить личное сообщение  
 
   Похожие торренты   Автор   Торрент   Размер 
В этой теме нет новых непрочитанных сообщений. Город порока / Broken City [Триллер, драма, криминал, 2013] HDRip, Mvo

salma3

131 | 14

745.25 МБ

В этой теме нет новых непрочитанных сообщений. На границе / Na granicy [боевик, триллер, драма, 2016] WEB-DLDRip, Avo

salma3

581 | 102

1.44 ГБ

В этой теме нет новых непрочитанных сообщений. Дикий город / Bou Chau Mai Sing (Ринго Лам) [2015, Боевик, Триллер, Криминал, HDRip-AVC] dvo

Dracon

235 | 14

1.46 ГБ

В этой теме нет новых непрочитанных сообщений. Асура / Асура: Город безумия / Asura / Asura: The City of Madness [боевик, триллер, драма, криминал, 2016] HDRip, Dvo

salma3

180 | 20

1.46 ГБ

В этой теме нет новых непрочитанных сообщений. Город Бога / Cidade de Deus [драма, криминал, 2002] HDRip. Mvo

salma3

186 | 8

1.45 ГБ

В этой теме нет новых непрочитанных сообщений. Грязный город / Filth City [боевик, комедия, драма, криминал, 2017] HDRip, Mvo

salma3

132 | 34

1.46 ГБ

В этой теме нет новых непрочитанных сообщений. Город Грехов / City of Sin [триллер, драма, криминал, 2017] WEB-DL 1080p, Mvo

salma3

144 | 36

3.57 ГБ


Начать новую тему Ответить на тему  [ 1 сообщение ] 




Для Мосгорсуда, Роскомнадзора и рекламодателей:: mosgorsud-torrent[собачка]yandex.ru