Торрент файл
скачать торрент магнет ссылка Добавлен: 20 янв 2012, 22:24
Размер: 1.45 ГБ
Сидеров: 0
Личеров: 10
Автор

СообщениеДобавлено: 20 янв 2012, 22:24 

Не в сети
Супермодератор
Аватара пользователя
Дата регистрации:
11 апр 2010, 18:10
Спасибо: 5801 / 7
Сообщения: 56779
Ядовитый плющ: Новое совращение / Poison Ivy: The New Seduction



Перевод: Профессиональный (многоголосый закадровый).субтитры: отсутствуют
Формат: DVDRip-AVC, MKV, H.264, AC3
Страна: США
Жанр: триллер, драма
Продолжительность: 01:34:00
Режиссер: Курт Восс / Kurt Voss
Год выпуска: 1997

В ролях: Джейми Прессли, Меган Эдвардс, Майкл Дес Баррес, Грег Вон, Сьюзен Тиррел, Мерет Ван Камп

Описание:Вайлет, подросшая дочь служанки, много лет назад выгнанной из дома мистером Гриром, решила отомстить за поруганную честь своей мамочки. Она явилась в роскошный особняк Гриров и хитростью поселилась в нем. Эта девица сумела войти в их налаженную жизнь и перевернула все верх дном.

________

Видео: 960x 520 (1:84:6), 23,976 кадр/сек, AVC (х264), High@L3.1, ~2014 Kbps, 0.168 bit/pixel
Аудио: 48 kHz, AC3 Dolby Digital, 2/0 (L,R) ch, ~192 kbps


Автор РИПа:ddimmon22
Общее
Уникальный идентификатор: 180261857346698553717279936424742622736 (0x879D2BBF69D49A07B050CE28792E1610)
Полное имя: I:\oktzbr rupu\jadovityi_plusch_[tfile.ru].mkv
Формат: Matroska
Версия формата: Version 2
Размер файла: 1,45 Гбайт
Продолжительность: 1 ч. 34 м.
Общий поток: 2207 Кбит/сек
Дата кодирования: UTC 2011-10-12 16:55:04
Программа кодирования: mkvmerge v4.9.1 ('Ich will') сборка от Aug 10 2011 09:31:20
Библиотека кодирования: libebml v1.2.1 + libmatroska v1.2.0

Видео
Идентификатор: 1
Формат: AVC
Формат/Информация: Advanced Video Codec
Профиль формата: High@L3.1
Параметр CABAC формата: Да
Параметр ReFrames формата: 8 кадров
Идентификатор кодека: V_MPEG4/ISO/AVC
Продолжительность: 1 ч. 34 м.
Битрейт: 2014 Кбит/сек
Ширина: 960 пикс.
Высота: 520 пикс.
Соотношение сторон: 16:9
Частота кадров: 23,976 кадр/сек
Цветовое пространство: YUV
Подвыборка цветности: 4:2:0
Битовая глубина: 8 бит
Тип развёртки: Прогрессивная
Бит/(Пиксели*Кадры): 0.168
Размер потока: 1,30 Гбайт (89%)
Библиотека кодирования: x264 core 116 r2074 2641b9e
Настройки программы: cabac=1 / ref=8 / deblock=1:-1:-1 / analyse=0x3:0x133 / me=umh / subme=7 / psy=1 / psy_rd=1.00:0.10 / mixed_ref=1 / me_range=16 / chroma_me=1 / trellis=2 / 8x8dct=1 / cqm=0 / deadzone=21,11 / fast_pskip=0 / chroma_qp_offset=-3 / threads=12 / sliced_threads=0 / nr=0 / decimate=1 / interlaced=0 / bluray_compat=0 / constrained_intra=0 / bframes=3 / b_pyramid=2 / b_adapt=2 / b_bias=0 / direct=3 / weightb=1 / open_gop=0 / weightp=2 / keyint=250 / keyint_min=23 / scenecut=40 / intra_refresh=0 / rc_lookahead=50 / rc=2pass / mbtree=1 / bitrate=2014 / ratetol=1.0 / qcomp=0.60 / qpmin=0 / qpmax=69 / qpstep=4 / cplxblur=20.0 / qblur=0.5 / ip_ratio=1.40 / aq=1:1.00

Аудио
Идентификатор: 2
Формат: AC-3
Формат/Информация: Audio Coding 3
Расширение режима: CM (complete main)
Идентификатор кодека: A_AC3
Продолжительность: 1 ч. 34 м.
Вид битрейта: Постоянный
Битрейт: 192 Кбит/сек
Каналы: 2 канала
Расположение каналов: Front: L R
Частота: 48,0 КГц
Битовая глубина: 16 бит
Метод сжатия: С потерями
Размер потока: 129 Мбайт (9%)















Поделиться:




реклама партнёра


Вернуться к началу
 Профиль Отправить личное сообщение  
 
   Похожие торренты   Автор   Торрент   Размер 
В этой теме нет новых непрочитанных сообщений. Ядовитый плющ: Новое совращение / Poison Ivy: The New Seduction [триллер, драма, 1997] DVDRip-AVC, Mvo+Dvo

salma3

90 | 11

2.53 ГБ

В этой теме нет новых непрочитанных сообщений. Ядовитый плющ: Новое совращение / Poison Ivy: The New Seduction [триллер, драма, 1997] WEB-DL 1080p, Dvo+Mvo

salma3

2 | 1

3.61 ГБ

В этой теме нет новых непрочитанных сообщений. Ядовитый плющ 2: Лили / Poison Ivy II [триллер, драма, 1996] DVDRip-AVC, Mvo+Avo

salma3

78 | 15

2.97 ГБ

В этой теме нет новых непрочитанных сообщений. Ядовитый плющ: Секретное общество / Poison Ivy: The Secret Society [Фэнтези, триллер, драма, 2008] HDRip, Dub

salma3

62 | 4

1.45 ГБ

В этой теме нет новых непрочитанных сообщений. Курт Сеит и Александра / Kurt Seyit ve Sura [01-02x01-21] (Хилаль Сарал) [драма, мелодрама, военный, история, 2014] SATRip, Dub

Dracon

47 | 46

28.1 ГБ

В этой теме нет новых непрочитанных сообщений. Курт Сеит и Александра / Kurt Seyit ve Sura [01-02x01-18] (Хилаль Сарал) [драма, мелодрама, военный, история, 2014] SATRip, Dub

Dracon

В этой теме нет новых непрочитанных сообщений. Курт Сеит и Александра / Kurt Seyit ve Sura [01x01-08 из 08] (Хилаль Сарал) [2014, драма, мелодрама, военный, история, WEB-DLRip]

Nickolas3435

29 | 14

7.7 ГБ


Начать новую тему Ответить на тему  [ 1 сообщение ] 




Для Мосгорсуда, Роскомнадзора и рекламодателей:: mosgorsud-torrent[собачка]yandex.ru